<?xml version="1.0" standalone="no"?>
<!DOCTYPE svg PUBLIC "-//W3C//DTD SVG 1.1//EN" "http://www.w3.org/Graphics/SVG/1.1/DTD/svg11.dtd" >
<svg xmlns="http://www.w3.org/2000/svg">
<metadata>
This is a custom SVG webfont generated by Font Squirrel.
Copyright   : Llicia gratu  Free License La Tipomatika
Designer    : La Tipomatika Digital Type Foundry
Foundry     : La Tipomatika
Foundry URL : httptipomatikaconr
</metadata>
<defs>
<font id="webfontnvn5uWk2" horiz-adv-x="1220" >
<font-face units-per-em="2048" ascent="1638" descent="-410" />
<missing-glyph horiz-adv-x="526" />
<glyph unicode=" "  horiz-adv-x="526" />
<glyph unicode="&#x09;" horiz-adv-x="526" />
<glyph unicode="&#xa0;" horiz-adv-x="526" />
<glyph unicode="!" horiz-adv-x="360" d="M111 43q8 27 29.5 44t47.5 17q29 0 39.5 -17t3.5 -42v-2q-6 -25 -28.5 -43t-46.5 -18q-27 0 -39 18t-6 43zM164 197l323 1208h99l-324 -1208h-98z" />
<glyph unicode="&#x22;" horiz-adv-x="444" d="M379 1112l57 293h121l-20 -141l-136 -183zM528 1112l58 293h121l-21 -141l-135 -183z" />
<glyph unicode="#" horiz-adv-x="1462" d="M145 0l277 440h-260l125 115h205l81 129l84 129h-397l123 115h344l124 192l124 191h119l-242 -383h446l123 192l123 191h119l-242 -383h242l-123 -115h-188l-84 -129l-84 -129h381l-127 -115h-328l-136 -220l-136 -220h-123l276 440h-450l-138 -220l-137 -220h-121z M614 555h449l82 129l82 129h-447z" />
<glyph unicode="$" horiz-adv-x="954" d="M109 184l108 72q25 -59 82 -108.5t139 -53.5l148 551q-74 16 -129.5 52t-88 86.5t-42 112.5t9.5 132q18 72 62 134.5t103.5 111.5t133.5 83t153 48l25 92h111l-23 -86q109 -4 184.5 -49t122.5 -119l-108 -72q-33 55 -92.5 92t-135.5 42l-151 -566q72 -16 128 -52t91 -86 t45 -111.5t-8 -131.5q-18 -72 -63.5 -134t-107 -111.5t-135 -82t-151.5 -42.5l-33 -119h-110l31 115h-11q-104 10 -178.5 65t-109.5 135zM455 1036q-25 -92 19 -168.5t142 -105.5l144 532q-53 -12 -102.5 -36.5t-90.5 -58.5t-70.5 -76t-41.5 -87zM551 100q51 8 101 30 t91 54.5t72 75.5t45 92q27 98 -20 177t-148 102z" />
<glyph unicode="%" horiz-adv-x="1583" d="M324 2l1185 1403h131l-1189 -1403h-127zM355 887.5q-7 62.5 12 134.5q18 72 59 134.5t96.5 109.5t119 73.5t128.5 26.5q63 0 111.5 -26.5t78 -73.5t35.5 -109.5t-12 -134.5t-59 -134.5t-94.5 -108.5t-117 -73.5t-126.5 -27.5q-66 0 -115 27.5t-79 73.5t-37 108.5z M471 933q4 -42 22.5 -75t50 -51.5t72.5 -18.5q39 0 79 18.5t75 51.5t61.5 75t38.5 89q12 49 8 92t-21 74t-47 49t-69 18q-41 0 -83 -18t-76.5 -49t-62 -74t-40.5 -92q-12 -47 -8 -89zM943 216.5q-7 62.5 11 133.5q20 72 61.5 135.5t94.5 109.5t115.5 72.5t124.5 26.5 q63 0 113 -26.5t80 -72.5t38 -109.5t-12 -135.5q-18 -72 -59.5 -134t-96.5 -108.5t-119.5 -74t-128.5 -27.5q-61 0 -108 27.5t-77 74t-37 109zM1057 259q4 -42 21.5 -73.5t48 -50t69.5 -18.5q41 0 83 18.5t77 50t62.5 73.5t39.5 91t8 92t-22.5 74t-50 49.5t-72.5 18.5 q-39 0 -79 -18.5t-74.5 -49.5t-62.5 -74t-40 -92t-8 -91z" />
<glyph unicode="&#x26;" horiz-adv-x="1222" d="M171 240.5q-13 70.5 7 148.5q33 117 138.5 219.5t289.5 175.5q12 6 18.5 8.5t20.5 8.5q-4 6 -7 14t-7 14q-37 55 -56.5 97.5t-26.5 77t-4 62.5t9 56q14 55 52 107.5t90.5 93.5t119 65.5t139.5 24.5q68 0 118 -22.5t81 -60.5t39 -88t-6 -107q-12 -45 -34 -87t-58.5 -83 t-91 -81t-130.5 -79l-55 -33l96 -179l99 -181l19 19q9 9 16 20v-2q4 4 9 10t9 10q29 29 59.5 64.5t57.5 89.5l94 -19q-51 -86 -110 -154l-105 -120q16 -41 26.5 -63.5t24.5 -47.5h-2q8 -16 19.5 -36.5t23.5 -47.5l-41 -155l-45 66l-35 54q-8 12 -22.5 36t-32.5 50v2 q-4 10 -6 11.5t-6 11.5q-8 -8 -13.5 -14.5t-15.5 -14.5q-98 -98 -211 -141t-223 -41q-92 0 -162 31.5t-113 85t-56 124zM283.5 280.5q11.5 -51.5 44 -91t84 -64.5t116.5 -25q88 -2 187.5 45.5t179.5 120.5l25 23l-117 216l-117 216q-186 -86 -281.5 -169t-117.5 -167 q-15 -53 -3.5 -104.5zM660.5 1041.5q9.5 -37.5 33.5 -78.5l66 -107q10 6 18 10t19 11q59 29 108 63.5t85 69t58.5 67.5t28.5 58q23 80 -21 131t-130 51q-39 0 -81 -16.5t-79 -43t-65.5 -61.5t-38.5 -74q-11 -43 -1.5 -80.5zM682 731q2 -4 2 -5t2 -5l6 3l6 3z" />
<glyph unicode="'" horiz-adv-x="247" d="M328 1118l104 139l21 138l125 10l-21 -143l-209 -172z" />
<glyph unicode="(" horiz-adv-x="532" d="M172 77.5q-4 110.5 12.5 241t55.5 271.5q37 135 88 262t112.5 235.5t129 195.5t135.5 142l16 -125q-51 -47 -102.5 -119.5t-97.5 -164.5t-87 -200.5t-72 -225.5q-35 -129 -52 -245t-17 -213t16.5 -170t48.5 -114l-96 -108q-41 55 -63.5 141t-26.5 196.5z" />
<glyph unicode=")" horiz-adv-x="503" d="M59 -152q55 41 110.5 114t108 170t97.5 213t80 245q31 117 47 225.5t19 200.5t-8 164.5t-36 119.5l80 125q37 -57 58.5 -144t25.5 -195.5t-11.5 -234.5t-51.5 -261q-39 -141 -92.5 -271.5t-117 -241t-133 -196.5t-139.5 -141z" />
<glyph unicode="*" horiz-adv-x="964" d="M410 1075l30 111h222l-117 157l100 80l115 -157l59 223h111l-60 -223l201 157l59 -77l-200 -158h223l-31 -113h-225q27 -39 58.5 -80t58.5 -80l-99 -75l-116 157l-60 -225h-110l57 221l-100 -79l-99 -74l-59 75l203 160h-221z" />
<glyph unicode="+" horiz-adv-x="925" d="M248 545l28 110h302l81 301h111l-82 -301h303l-28 -110h-304l-81 -303h-111l82 303h-301z" />
<glyph unicode="," horiz-adv-x="354" d="M31 -111l116 129l35 138h125l-39 -148l-225 -153z" />
<glyph unicode="-" horiz-adv-x="862" d="M219 545l29 110h715l-29 -110h-715z" />
<glyph unicode="." horiz-adv-x="296" d="M74 0l39 156h155l-39 -156h-155z" />
<glyph unicode="/" horiz-adv-x="774" d="M76 0l887 1405h118l-884 -1405h-121z" />
<glyph unicode="0" horiz-adv-x="1200" d="M230.5 421q-7.5 130 33.5 277q39 147 116 278.5t173 227.5t205.5 152.5t216.5 56.5q106 0 186 -56.5t124 -152.5t49 -227t-34 -279q-41 -147 -115.5 -277t-170.5 -228.5t-206 -154.5t-216 -56t-186 56t-124 154.5t-51.5 228.5zM345 461.5q3 -109.5 37 -191.5t95.5 -129 t145.5 -47q86 0 172 47t162.5 129t137 191.5t95.5 236.5q33 125 32 234.5t-34 191.5t-94.5 129t-147.5 47q-84 0 -171 -47t-163.5 -129t-139 -191.5t-95.5 -234.5q-35 -127 -32 -236.5z" />
<glyph unicode="1" horiz-adv-x="626" d="M332 993l39 142l399 270h100l-372 -1405h-111l334 1255l-195 -132z" />
<glyph unicode="2" horiz-adv-x="972" d="M76 0l26 102l754 652q53 45 91 99t54 118q18 70 8 129t-43.5 104t-88 70.5t-123.5 25.5q-70 0 -140.5 -27.5t-134.5 -76.5l-59 80q86 61 179 99t183 38q92 0 164 -35t117 -95t59.5 -140t-10.5 -172q-23 -86 -76 -162t-123 -135l-325 -282l-328 -281h680l-29 -111h-835z " />
<glyph unicode="3" horiz-adv-x="882" d="M61 188l103 76q29 -61 100.5 -107t149.5 -46q66 0 128 20.5t114.5 55t90 81.5t54.5 101q12 49 2 99t-40 91t-76 68.5t-103 34.5h-125l30 110h58q23 0 41 1t22 1q61 4 119.5 22.5t107 50.5t83 75t49.5 98q14 57 4 108.5t-43 90t-84 60t-115 21.5q-78 0 -139.5 -25.5 t-120.5 -80.5l-59 80q82 68 164.5 102.5t183.5 34.5q88 0 157.5 -30.5t113.5 -84t58.5 -124t-6.5 -152.5q-29 -106 -106.5 -179t-181.5 -120q39 -27 67.5 -67t45 -87t18.5 -98t-11 -100q-23 -76 -75 -143.5t-124.5 -118t-158.5 -80t-174 -29.5q-51 0 -100.5 15.5t-92.5 41 t-77 60t-52 73.5z" />
<glyph unicode="4" horiz-adv-x="968" d="M205 504l28 98l682 809l80 -57l-624 -740h428q20 74 39.5 155t40.5 153h108l-80 -308h142l-31 -110h-141l-134 -504h-108l133 504h-563z" />
<glyph unicode="5" horiz-adv-x="1032" d="M186 211l103 80q27 -82 89 -131t150 -49q72 0 142.5 31.5t132 85t107.5 126t69 156.5q23 82 22.5 154.5t-24 126t-71.5 84t-120 30.5q-49 0 -101 -14t-101 -42t-92 -66t-76 -83h-107l236 705h731l-29 -113h-620l-73 -194l-75 -197q76 53 163 83t173 30q96 0 161.5 -40 t100.5 -107.5t39 -160t-24 -196.5q-29 -104 -88.5 -197.5t-139.5 -163t-174 -109.5t-188 -40q-111 0 -195 57.5t-121 153.5z" />
<glyph unicode="6" horiz-adv-x="1036" d="M209 235.5q-14 75.5 6 165.5v-2q10 66 29 138l37 139l12 43q23 90 50.5 171t62.5 157t91 142t125.5 115.5t148.5 79t159 31.5q111 0 193.5 -49t129.5 -143l-125 -66q-31 66 -90 106t-137 40q-59 0 -119.5 -21.5t-114 -59.5t-97.5 -91.5t-70 -114.5q-33 -74 -61.5 -155 t-51.5 -167l-4 -16q74 72 168 115t194 47q88 0 159 -31t117 -86t62.5 -131t-6.5 -166l-4 -18q-25 -90 -80 -168t-128.5 -134.5t-161 -89t-177.5 -32.5q-86 0 -152.5 31.5t-108.5 88t-56 132zM319.5 281.5q10.5 -56.5 43 -98.5t84 -66.5t114.5 -24.5q66 0 130.5 24.5 t118.5 67.5t94 99.5t57 119.5l6 19q14 66 4 122t-43 97t-84 64.5t-117 23.5q-68 0 -132.5 -26.5t-117.5 -71.5t-93 -104.5t-58 -125.5q-17 -63 -6.5 -119.5z" />
<glyph unicode="7" horiz-adv-x="907" d="M74 0l946 1292h-600l29 113h784l-1030 -1405h-129z" />
<glyph unicode="8" horiz-adv-x="940" d="M149.5 234.5q-12.5 74.5 10.5 160.5q14 57 45 111.5t72.5 100.5t90 85t101.5 66q-66 47 -89.5 122.5t1.5 174.5q20 74 66.5 139.5t110 113.5t137 76.5t149.5 28.5q78 0 138 -28.5t98 -76.5t49.5 -114t-9.5 -139q-25 -98 -88 -174t-155 -123q80 -53 111.5 -149.5 t-1.5 -213.5q-23 -86 -75 -160.5t-123.5 -131t-155.5 -89t-172 -32.5q-84 0 -150.5 32.5t-107.5 89t-53.5 131zM265 279.5q9 -54.5 40 -95.5t78 -65.5t109 -24.5q63 0 125.5 24.5t114.5 65.5t90 95.5t55 115.5q16 61 8 116.5t-39 97.5t-80 65.5t-113 23.5 q-61 0 -121.5 -23.5t-112.5 -65.5t-91 -97t-56 -117q-16 -61 -7 -115.5zM487.5 959.5q8.5 -44.5 34 -78t66.5 -53t94 -19.5t105.5 19.5t96.5 53t76.5 78t45.5 95.5q14 51 6 96t-34 78t-68 52t-95 19t-104.5 -19t-95.5 -52t-76.5 -78t-46.5 -96q-13 -51 -4.5 -95.5z" />
<glyph unicode="9" horiz-adv-x="1001" d="M152 166l124 84q31 -72 90.5 -111t135.5 -39q63 0 123.5 21.5t114 58.5t97.5 88t72 111q63 147 107 313l6 25q-76 -66 -176.5 -110t-202.5 -44q-84 0 -151.5 32t-110.5 87t-58.5 130t7.5 161l4 14q23 88 77 166t127.5 136.5t160.5 92t178 33.5q86 0 152.5 -33.5 t108.5 -92t57 -134.5t-1 -162q-12 -66 -32 -140l-36 -140l-14 -54q-23 -82 -48.5 -158.5t-57.5 -148.5q-37 -82 -97.5 -149.5t-133.5 -115.5t-154.5 -74.5t-163.5 -26.5q-102 0 -182 50t-123 130zM435 858q11 -55 44 -96t82 -64.5t113 -23.5q68 0 133 24.5t120.5 67.5 t95.5 100.5t58 124.5q16 63 5 119.5t-42.5 98.5t-83 66.5t-112.5 24.5q-68 0 -134.5 -26.5t-121.5 -70.5t-96 -103.5t-60 -122.5q-12 -64 -1 -119z" />
<glyph unicode=":" horiz-adv-x="372" d="M111 0l39 156h155l-39 -156h-155zM340 868l41 156h156l-41 -156h-156z" />
<glyph unicode=";" horiz-adv-x="346" d="M10 -111l115 129l35 138h125l-37 -148l-228 -153zM340 868l41 156h154l-41 -156h-154z" />
<glyph unicode="&#x3c;" horiz-adv-x="675" d="M176 508l641 510l60 -78l-543 -432l156 -211l159 -211l-102 -82z" />
<glyph unicode="=" horiz-adv-x="901" d="M238 399l30 115h695l-31 -115h-694zM340 784l31 117h694l-31 -117h-694z" />
<glyph unicode="&#x3e;" horiz-adv-x="688" d="M84 86l541 422l-157 216l-157 216l105 78l366 -510l-641 -504z" />
<glyph unicode="?" horiz-adv-x="839" d="M352 -178q10 31 35 49t51 18q31 0 45.5 -18t3.5 -49q-8 -29 -31.5 -50.5t-54.5 -21.5q-27 0 -42 21.5t-7 50.5zM354 649l29 101h203q55 2 108.5 23.5t98.5 58t78.5 86t48.5 104.5q16 57 9 108.5t-34 90.5t-70 60.5t-98 21.5q-74 0 -146.5 -43t-131.5 -111l-60 80 q76 84 172 134t195 50q78 0 138 -30.5t97 -84t47.5 -125t-10.5 -151.5q-20 -78 -67.5 -146.5t-112 -122t-140 -84t-153.5 -30.5h-88q4 -152 10 -320.5t10 -318.5h-118z" />
<glyph unicode="@" horiz-adv-x="1636" d="M217.5 223q-20.5 129 18.5 275q39 147 129 277t211.5 225.5t265 150.5t288.5 55q143 0 254 -51t178.5 -139t87 -205t-17.5 -246q-25 -92 -64.5 -170t-80.5 -137q-47 -68 -96 -123q-43 -45 -95.5 -71.5t-99.5 -26.5q-39 0 -67.5 15.5t-48 40t-31 54t-17.5 58.5l-52 -15 l-67 -16q-35 -8 -70.5 -15t-62.5 -9q-37 -4 -81 7t-77.5 43.5t-47 88t9.5 141.5q10 47 41 107q45 96 102 159.5t120.5 102.5t127 54t123.5 15q35 0 84 -2t92 -6q51 -4 102 -6l-103 -212l-63 -133l-32 -73l-13 -30l-4 -9q-18 -51 -19 -96t9 -78t30.5 -51t47.5 -18q49 0 96 50 t86 117.5t64.5 136t35.5 103.5q29 106 15.5 202.5t-66.5 170.5t-143 117t-215 43q-123 0 -243 -47.5t-222 -128t-178 -189t-109 -231.5t-15.5 -230.5t76 -187.5t153.5 -127t218 -47q35 0 81 6t106 25l-31 -121q-92 -25 -186 -25q-145 0 -259 55.5t-184.5 151.5t-91 225z M712 361.5q3 -31.5 15 -51t31.5 -29t40.5 -9.5q49 -2 104 7.5t88 21.5l37 82q18 41 39 82l66 137l65 137h-65q-18 0 -40 1t-44 1q-80 2 -156 -43t-139 -174q-25 -51 -33 -86q-12 -45 -9 -76.5z" />
<glyph unicode="A" d="M51 0l897 1415h92l144 -1415h-117l-63 575h-469l-184 -287l-183 -288h-117zM606 688h387q-14 137 -28.5 259t-26.5 261l-166 -260z" />
<glyph unicode="B" horiz-adv-x="1048" d="M100 0l377 1415h457q78 -2 139.5 -30.5t100 -76.5t51.5 -113q5 -26 5 -52q0 -40 -11 -82q-27 -98 -99.5 -179t-165.5 -130q84 -51 116 -144q17 -48 17 -101q0 -48 -14 -99q-23 -82 -74 -155t-120.5 -127t-152.5 -87t-171 -35h2l-37 -4h-420zM240 113h344q63 2 123.5 26.5 t111.5 64.5t88 92t54 112q9 34 8 65q0 21 -3 41q-9 51 -39 90t-77 63.5t-109 28.5h-344zM426 809h344q57 2 111.5 21.5t99.5 53.5t78 79t47 98q7 28 7 55q0 18 -3 35q-8 43 -35.5 77t-72 54.5t-99.5 24.5h-344z" />
<glyph unicode="C" horiz-adv-x="1208" d="M215 425q-6 41 -6 84q0 95 29 198q39 143 123.5 273t198.5 228.5t247 156.5t268 58q129 0 230.5 -55t164.5 -151l-98 -76q-55 80 -139 125t-189 45q-109 0 -217 -47t-202.5 -129t-167 -193t-105.5 -235q-25 -94 -25 -181q0 -27 3 -54q10 -112 58 -194.5t132 -132 t199 -49.5q104 0 208.5 45t205.5 123l57 -76q-117 -96 -246 -151t-256 -55t-228.5 57t-164 155.5t-80.5 230.5z" />
<glyph unicode="D" horiz-adv-x="1177" d="M68 0l376 1415h527q102 -2 178 -57t118 -150.5t46 -223.5v-24q0 -117 -35 -249q-39 -145 -110.5 -273.5t-164 -223.5t-197 -152.5t-208.5 -61.5h-530zM207 113q104 0 209.5 2t210.5 2q80 2 161.5 50t154.5 128t131.5 187.5t90.5 228.5q32 117 32 221q0 111 -32 194 q-31 80 -88 127t-137 50h-414z" />
<glyph unicode="E" horiz-adv-x="993" d="M82 0l377 1415h827l-31 -108h-714l-133 -498h612l-29 -113h-612l-158 -583h715l-27 -113h-827z" />
<glyph unicode="F" horiz-adv-x="997" d="M90 0l377 1415h827l-28 -106h-715l-135 -500h610l-29 -113h-610l-93 -348l-91 -348h-113z" />
<glyph unicode="G" horiz-adv-x="1236" d="M205 422q-5 37 -5 76q0 97 29 202q39 150 126 281t202 229.5t248 155.5t266 57q129 0 230.5 -54t166.5 -152l-100 -78q-55 80 -139 125t-189 45q-111 0 -221 -47.5t-205.5 -129t-167 -193.5t-106.5 -239q-25 -92 -25 -175q0 -32 3 -62q13 -111 63.5 -194t135.5 -131 t196 -48q96 0 191 37t179 98l101 377h-383l28 109h496l-139 -521l-8 -16q-113 -92 -239 -142t-255 -50q-133 0 -236.5 56t-165 154.5t-77.5 229.5z" />
<glyph unicode="H" horiz-adv-x="1142" d="M92 0l377 1415h113l-164 -606h737l164 606h111l-377 -1415h-111l184 696h-737l-93 -348l-91 -348h-113z" />
<glyph unicode="I" horiz-adv-x="282" d="M88 0l377 1415h113l-377 -1415h-113z" />
<glyph unicode="J" horiz-adv-x="624" d="M72 80l94 78q16 -29 39.5 -46.5t52.5 -17.5q33 0 66.5 18.5t64.5 52.5t56.5 81t39.5 102l287 1067h113l-285 -1063q-20 -76 -60 -143.5t-91.5 -117.5t-108.5 -79.5t-113 -29.5q-51 0 -89.5 27.5t-65.5 70.5z" />
<glyph unicode="K" horiz-adv-x="1193" d="M82 0l377 1415h112l-196 -731l823 731h150l-695 -616l234 -400l237 -399h-145l-422 713l-115 -101l-114 -100l-67 -256l-66 -256h-113z" />
<glyph unicode="L" horiz-adv-x="927" d="M82 0l377 1415h110l-350 -1302h678l-27 -113h-788z" />
<glyph unicode="M" horiz-adv-x="1275" d="M61 0l377 1415h107l248 -760l647 760h108l-379 -1415h-112l313 1184l-295 -345l-293 -347h-69l-226 692l-156 -593l-157 -591h-113z" />
<glyph unicode="N" horiz-adv-x="1099" d="M88 0l377 1415h104l379 -1179l318 1179h112l-377 -1415h-106l-381 1186l-159 -594l-156 -592h-111z" />
<glyph unicode="O" horiz-adv-x="1413" d="M215 420q-5 38 -5 78q0 99 30 209q39 150 125 279.5t199.5 227t246.5 153.5t266 56q137 0 240.5 -56t163 -152.5t72.5 -227.5q3 -33 4 -68q0 -101 -29 -212q-43 -160 -130 -294t-208 -233q-115 -96 -242 -147t-258 -51q-129 0 -231.5 55t-165 152.5t-78.5 230.5zM331 468 q11 -112 60 -195t134 -130t196 -47q115 0 225.5 47t203.5 130t163.5 195t105.5 239q25 96 25 182q0 33 -3 64q-13 114 -73 196q-49 78 -132 119t-189 41q-111 0 -220.5 -47.5t-203 -128t-165 -191.5t-104.5 -235q-26 -96 -26 -184q0 -28 3 -55z" />
<glyph unicode="P" horiz-adv-x="983" d="M100 0l377 1415h412q84 0 150.5 -27.5t108.5 -75.5t56 -113q6 -27 6 -55q0 -40 -12 -83q-20 -78 -69.5 -144.5t-118 -115.5t-150.5 -78t-166 -29h-301l-91 -347l-91 -347h-111zM424 807h301q59 0 117.5 19.5t107.5 53t85 80t50 101.5q8 28 8 54q0 21 -4 40q-11 45 -43 79 t-81.5 53.5t-110.5 19.5h-297z" />
<glyph unicode="Q" horiz-adv-x="1361" d="M247 498q-5 35 -5 71q0 88 26 185q39 143 120 265t186.5 212t227.5 141t242 51q121 0 216.5 -51t152.5 -142t73 -213q5 -36 4 -74q0 -90 -26 -189q-39 -143 -124 -268.5t-195 -215.5q-82 -70 -175 -114.5t-190 -61.5q-1 -15 -1 -29q0 -34 7 -59q10 -35 37 -35 q18 0 38 16.5t36 39.5l61 -70q-43 -41 -82.5 -66.5t-80.5 -25.5q-33 0 -57.5 17.5t-40 48t-21.5 70.5q-4 24 -4 50q0 17 2 35q-115 6 -207 60.5t-148.5 143.5t-71.5 208zM351 539q9 -100 52 -177t116 -123t171 -53q-4 25 -22.5 42.5t-53.5 15.5l29 100h7q73 0 114 -41 q39 -39 39 -97v-11q90 20 177 71t162 125t130 166t84 197q25 87 24 166q0 33 -4 64q-14 108 -69 185q-47 72 -119 113t-170 41q-100 0 -201.5 -45t-189.5 -122t-156 -180.5t-98 -221.5q-24 -88 -24 -168q0 -24 2 -47z" />
<glyph unicode="R" horiz-adv-x="970" d="M80 0l377 1415h411q84 0 150.5 -27.5t109.5 -75.5t58 -114q6 -27 6 -55q0 -41 -12 -84q-20 -76 -69.5 -141.5t-118 -114.5t-150.5 -78t-166 -29h-168l214 -349l214 -347h-145l-420 676l-178 -676h-113zM406 809h299q59 0 118.5 19.5t108.5 53t85 79t50 98.5q8 29 8 55 q0 21 -5 41q-11 45 -43 79t-81 54.5t-110 20.5h-295z" />
<glyph unicode="S" horiz-adv-x="993" d="M127 186l109 72q29 -76 97 -120t171 -44q61 0 122.5 19.5t114 55.5t90 83t52.5 102q8 31 8 61q0 21 -4 41q-10 48 -40 87t-77 64.5t-106 35.5q-86 10 -152 45t-108 88t-55 121q-5 27 -5 54q0 42 12 87q23 82 76 153t127 122t161 79.5t179 28.5q121 0 203 -44t133 -124 l-111 -73q-35 63 -98 99t-154 36q-63 0 -126.5 -20.5t-119 -57.5t-96.5 -86t-55 -104q-9 -34 -9 -66q0 -20 4 -40q9 -50 40 -90t80 -65.5t115 -31.5q82 -12 146 -47t104 -88.5t53 -118.5q5 -26 5 -54q0 -41 -12 -86q-23 -80 -75 -148.5t-123.5 -119.5t-158.5 -80.5 t-175 -29.5q-129 0 -217 56t-125 148z" />
<glyph unicode="T" horiz-adv-x="1177" d="M424 1307l31 108h1018l-31 -108h-451l-173 -654l-173 -653h-113l347 1307h-455z" />
<glyph unicode="U" horiz-adv-x="1224" d="M174 360l283 1055h118l-282 -1055q-2 -14 -2 -28q0 -38 16 -72q23 -47 68 -84t111.5 -58.5t148.5 -21.5q78 0 153.5 21.5t140 58.5t111.5 84t70 100l283 1055h112l-282 -1055q-25 -78 -85.5 -146.5t-145.5 -120.5t-185 -81.5t-203 -29.5q-109 0 -194.5 29.5t-143 81.5 t-83.5 121q-16 42 -15 87q0 29 6 59z" />
<glyph unicode="V" horiz-adv-x="1308" d="M453 1415h116l127 -1235l396 619l393 616h119l-899 -1415h-109z" />
<glyph unicode="W" horiz-adv-x="1873" d="M461 1415h119l127 -1237l174 277l174 276l-33 342l-33 342h117l55 -561l37 -336q18 -160 35 -338l394 619l392 616h121l-897 -1415h-113l-61 561l-176 -281l-176 -280h-111z" />
<glyph unicode="X" horiz-adv-x="1107" d="M59 0l613 723l-217 692h127l192 -590l255 295l255 295h129l-602 -704l113 -356l112 -355h-129l-200 612l-261 -306l-260 -306h-127z" />
<glyph unicode="Y" horiz-adv-x="1394" d="M428 1415h150l307 -667l336 333l338 334h147l-791 -778l-84 -319l-83 -318h-115l168 637l-188 389z" />
<glyph unicode="Z" horiz-adv-x="1122" d="M49 0l1159 1303h-741l31 112h942l-1159 -1302h727l-27 -113h-932z" />
<glyph unicode="[" horiz-adv-x="430" d="M229 109l129 481q8 33 -7 54.5t-46 21.5h-55l29 110h55q31 0 58.5 22.5t35.5 53.5l123 461q18 41 68.5 66.5t103.5 25.5l-31 -115q-33 0 -33 6l-127 -471q-18 -29 -43.5 -50t-60.5 -25l-16 -56q63 -10 67 -73l-137 -512q0 2 35 2l-27 -111q-23 0 -47 8t-42.5 21.5t-28 34 t-3.5 45.5z" />
<glyph unicode="\" horiz-adv-x="759" d="M449 1405h118l142 -1405h-121z" />
<glyph unicode="]" horiz-adv-x="374" d="M47 0l27 111q16 0 25.5 1t15.5 3l133 503q37 72 100 76q8 25 21 56q-29 6 -47.5 27.5t-18.5 47.5l125 465h-39l31 115q63 0 95 -26.5t28 -65.5l2 -13l-121 -448q-8 -31 4 -53.5t43 -22.5h55l-28 -110h-56q-31 0 -55.5 -21.5t-32.5 -54.5l-129 -481q-6 -25 -25.5 -44.5 t-45 -34t-54 -22.5t-53.5 -8z" />
<glyph unicode="^" horiz-adv-x="1128" d="M291 907l645 504l369 -506l-105 -80l-307 428l-273 -214l-274 -214z" />
<glyph unicode="_" horiz-adv-x="1050" d="M76 0l26 111h867l-27 -111h-866z" />
<glyph unicode="`" horiz-adv-x="417" d="M375 1303h178l96 -201h-76z" />
<glyph unicode="a" horiz-adv-x="835" d="M122 174q-5 23 -5 48q0 35 10 73q18 66 60 124t99.5 101t125 68.5t135.5 25.5h225l12 48q13 50 14 94q0 51 -18 89q-16 36 -45.5 57.5t-70.5 23.5q-53 0 -84 -7l-72 -18q-6 -2 -20.5 -6t-18.5 -6l-2 104l59 19q27 8 51.5 13t52 8t64.5 3q61 -2 108.5 -30.5t75 -75.5 t34.5 -111q2 -19 3 -39q0 -46 -12 -96l-6 -22l-88 -324l-33 -121l-30 -106l-21 -78q-8 -31 -8 -33h-109l17 63q-55 -37 -119 -59t-129 -22q-68 0 -122 24.5t-88 67.5t-45 100zM238 295q-7 -27 -7 -51q0 -53 34 -92q50 -57 143 -58q47 0 92 15.5t83 43t64.5 64.5t38.5 80 l55 203q-84 0 -129 1t-66 1h-26h-4q-45 0 -90 -16.5t-83 -45t-65.5 -65.5t-39.5 -80z" />
<glyph unicode="b" horiz-adv-x="1071" d="M115 0l374 1405h113l-115 -432q127 63 297 63q102 0 180 -42t125.5 -114.5t60.5 -167.5q4 -30 4 -62q0 -67 -19 -140q-29 -109 -93.5 -204t-149.5 -166.5t-186.5 -114.5t-203.5 -45q-86 4 -154.5 20t-114.5 47l-10 -47h-108zM264 162q8 -6 31.5 -16.5t58.5 -21.5 t80 -20.5t98 -11.5q78 2 156 35t144.5 90t117.5 132t74 161q15 56 15 110q0 24 -3 48q-10 76 -47 132t-97.5 90t-137.5 34q-47 0 -99.5 -11.5t-99.5 -25.5q-53 -16 -106 -35z" />
<glyph unicode="c" horiz-adv-x="978" d="M159 304q-4 30 -5 62q0 68 20 142q29 109 93.5 205t150.5 167.5t186.5 113.5t200.5 42q106 0 187 -47t130 -123l-102 -82q-37 63 -100.5 101.5t-145.5 38.5q-78 0 -155.5 -33t-144 -89.5t-117 -132t-72.5 -161.5q-16 -61 -16 -117q0 -23 2 -44q9 -75 46 -131t97.5 -89 t138.5 -33t159 35t152 98l62 -77q-94 -78 -196.5 -123t-207.5 -45q-100 0 -178 42t-125 113.5t-60 166.5z" />
<glyph unicode="d" horiz-adv-x="1030" d="M153 306q-4 30 -5 62q0 68 20 144q29 109 93.5 203t150.5 164.5t187 112.5t204 42q88 0 152.5 -15t111.5 -50l117 436h112l-374 -1405h-113l10 45q-59 -27 -138 -44t-161 -21q-102 2 -180 44t-126 114.5t-61 167.5zM264 351q10 -75 47 -132t99.5 -92t142.5 -37 q57 0 111.5 11.5t95.5 25.5q49 16 92 37l184 688l-37 18q-25 12 -59.5 23.5t-77.5 20t-90 8.5q-80 -2 -160 -36t-146.5 -89.5t-116.5 -129t-73 -155.5q-15 -59 -15 -113q0 -25 3 -48z" />
<glyph unicode="e" horiz-adv-x="933" d="M165 281q-5 33 -5 68q0 60 14 124l10 37q29 109 87.5 205t134 167.5t161.5 113.5t170 42q86 0 150.5 -35.5t101.5 -101t44 -157.5l2 -37q0 -76 -23 -164l-19 -64h-702q-9 -47 -9 -92q0 -29 4 -56q9 -71 37.5 -123t77 -83t111.5 -31q41 0 86 8.5t88 21.5t83 29.5t69 34.5 l16 -104q-66 -41 -155 -65.5t-169 -34.5q-10 -2 -26 -2h-27q-86 0 -151.5 37.5t-106.5 104.5t-54 157zM324 590h591q4 32 4 62q0 37 -6 71q-10 61 -37.5 105t-70.5 70t-98 26t-112.5 -23.5t-108 -68t-93 -105.5t-69.5 -137z" />
<glyph unicode="f" horiz-adv-x="671" d="M213 0l88 332l39 143l40 148l38 141l35 125h-150l31 112h147q0 6 4 23q2 8 4 14l9 25q20 72 62 135.5t96.5 111.5t116 75.5t120.5 27.5q29 0 53.5 -1t61.5 -5l-64 -113q-25 6 -44 7.5t-36 1.5q-41 -2 -83 -22.5t-76.5 -56.5t-62.5 -83t-42 -101l-10 -39h262l-31 -112 h-262l-119 -445l-116 -444h-111z" />
<glyph unicode="g" horiz-adv-x="1128" d="M42 -195q-8 30 -8 62q0 33 9 67q23 88 99.5 164t176.5 117q-4 18 -0.5 41t9.5 47q18 66 61 105q-80 74 -80 181q0 42 13 89q20 74 69 139.5t118 113.5t150.5 76.5t167.5 28.5q47 0 82 -6t66 -16h373l-136 -111h-96q27 -45 35 -102q3 -19 3 -39q0 -40 -11 -84 q-20 -74 -69.5 -139.5t-118 -112.5t-150.5 -74.5t-168 -27.5q-29 0 -52.5 4t-43.5 8q-37 10 -60 10q-18 0 -37.5 -8t-25.5 -31q-10 -35 6 -43t37 -8h11q7 0 17 2q12 2 24.5 3t29.5 1q86 0 155.5 -25.5t113.5 -69.5t60 -105q8 -28 8 -58q0 -34 -10 -70q-18 -68 -67 -129 t-118 -106t-151.5 -71.5t-168.5 -26.5q-84 0 -152 26.5t-111 71.5t-60 106zM152 -66q-6 -22 -6 -42q0 -22 7 -44q13 -41 46.5 -71.5t83 -49t110.5 -18.5q66 0 127.5 18.5t111.5 49t85 71.5t47 86q6 22 6 43q0 22 -7 43q-13 41 -47 72t-85 49.5t-117 18.5q-61 0 -120.5 -18.5 t-110 -49.5t-85 -72t-46.5 -86zM431 582q11 -45 43 -79t81 -53.5t111 -19.5q63 0 124.5 19.5t111.5 53.5t86 79t48 96q8 30 8 57q0 21 -5 41q-11 45 -42.5 79t-83 53.5t-114.5 19.5q-61 0 -121 -19.5t-110 -53.5t-86 -79t-50 -98q-6 -27 -6 -52q0 -22 5 -44z" />
<glyph unicode="h" horiz-adv-x="931" d="M86 0l375 1409h110l-133 -496q66 59 140.5 92t156.5 33q74 0 128.5 -29.5t88 -80.5t41.5 -120q3 -21 3 -43q0 -49 -13 -103l-170 -656h-111l177 656q8 35 7 67q0 19 -2 37q-7 49 -33 85t-66 56.5t-91 20.5q-43 0 -89 -19.5t-89 -52.5t-79 -76t-58 -90l-42 -158l-49 -189 l-50 -188l-41 -155h-111z" />
<glyph unicode="i" horiz-adv-x="348" d="M117 0l270 1024h109l-271 -1024h-108zM449 1309q8 29 33.5 48t56.5 19q29 0 45 -19q11 -13 11 -30q0 -9 -3 -18q-8 -27 -35 -47.5t-55 -20.5q-31 0 -46 21q-10 13 -10 29q0 9 3 18z" />
<glyph unicode="j" horiz-adv-x="724" d="M-10 -387l39 108l41 -4q16 -2 31.5 -3t23.5 -1q43 2 84 23.5t77 56.5t62.5 81t40.5 97l283 1055h110l-288 -1073q-23 -72 -65 -133.5t-94 -108.5t-113.5 -75.5t-125.5 -30.5q-16 0 -32.5 1t-32.5 3q-8 2 -15.5 3t-25.5 1zM727 1298q10 31 33.5 49.5t54.5 18.5 q25 0 41 -18q10 -11 10 -28q0 -10 -4 -22q-6 -29 -31.5 -48t-50.5 -19q-31 0 -45 19q-10 14 -10 32q0 7 2 16z" />
<glyph unicode="k" horiz-adv-x="901" d="M115 0l374 1405h111l-186 -698l231 159l229 158h170l-413 -281l114 -371l117 -372h-131l-203 668l-75 -53l-78 -52l-75 -281l-73 -282h-112z" />
<glyph unicode="l" horiz-adv-x="331" d="M121 0l407 1534h111l-408 -1534h-110z" />
<glyph unicode="m" horiz-adv-x="1513" d="M80 0l242 913l28 111h113l-31 -115q66 59 140.5 92t152.5 33q100 0 166.5 -56t89.5 -142q78 109 177 155.5t183 46.5q72 0 127.5 -29.5t88 -79.5t41.5 -119q3 -23 4 -47q0 -48 -13 -101l-172 -658h-112l176 658q8 37 8 70q0 17 -2 33q-6 48 -29.5 84t-62.5 56.5t-90 20.5 q-47 0 -94.5 -19.5t-90.5 -51.5t-77.5 -75t-55.5 -90l-184 -686h-111l176 653q8 35 8 68q0 19 -3 37q-7 49 -31.5 84t-65.5 55.5t-92 20.5q-45 0 -91 -19.5t-87 -51.5t-76 -75t-57 -90l-42 -158l-49 -188l-50 -186l-39 -154h-113z" />
<glyph unicode="n" horiz-adv-x="886" d="M72 0l270 1024h113l-29 -111q66 61 141.5 94t155.5 33q72 0 127 -29.5t88 -80.5t42 -120q3 -23 3 -47q0 -48 -12 -101l-170 -662h-111l174 662q11 41 11 78q0 13 -2 26q-5 49 -27.5 85t-59 56.5t-88.5 20.5q-45 0 -94 -19.5t-94 -51.5t-83 -75t-60 -92l-42 -158l-50 -189 l-50 -188l-41 -155h-112z" />
<glyph unicode="o" horiz-adv-x="1050" d="M156 302q-4 29 -4 58q0 69 20 146q29 111 93.5 207t148.5 167.5t183 113.5t198 42q98 0 173.5 -42t122 -113.5t57.5 -167.5q3 -27 3 -56q0 -72 -21 -151q-29 -109 -92 -204t-147 -167t-182.5 -113.5t-196.5 -41.5t-175 41.5t-123 113.5t-58 167zM270 345q8 -75 43 -131 t93.5 -89t136.5 -33q76 0 150.5 33t139 89t113.5 131t72 161q17 63 16 121q0 21 -2 42q-8 77 -43 133t-92 89t-133 33q-78 0 -153.5 -33t-140 -89.5t-114 -133t-71.5 -162.5q-17 -63 -17 -120q0 -21 2 -41z" />
<glyph unicode="p" horiz-adv-x="1036" d="M-23 -389l375 1413h107l-15 -55q59 27 140.5 47t160.5 20q100 -2 179.5 -44t126.5 -113.5t60 -165.5q4 -30 4 -61q0 -67 -19 -140q-29 -111 -93.5 -207t-150.5 -167.5t-186.5 -113.5t-202.5 -42q-84 0 -151.5 17t-110.5 48l-117 -436h-107zM229 162q8 -4 33 -15.5 t59.5 -22.5t78.5 -20.5t94 -11.5q80 2 157.5 36t144 90t117 132t72.5 162q16 61 16 116q0 23 -3 45q-9 75 -46 130t-97 87t-140 32q-55 0 -109.5 -12.5t-97.5 -26.5q-51 -16 -96 -37z" />
<glyph unicode="q" horiz-adv-x="1054" d="M160 307q-5 31 -5 65q0 66 19 138q29 109 94.5 204t151.5 166.5t186.5 113.5t200.5 42q84 0 153.5 -16t116.5 -45l13 49h110l-377 -1413h-110l116 442q-133 -70 -305 -69q-100 2 -178 44t-125 113.5t-61 165.5zM270 349q10 -75 48 -130t98.5 -88t138.5 -35 q47 0 99.5 10.5t99.5 22.5q53 14 106 35l184 688q-8 6 -31.5 18.5t-58 24.5t-80 21.5t-96.5 9.5q-78 0 -156.5 -33t-146 -89t-119 -132t-73.5 -162q-15 -59 -16 -113q0 -25 3 -48z" />
<glyph unicode="r" horiz-adv-x="585" d="M82 0l270 1024h113l-31 -115q66 61 140.5 94t154.5 33q10 0 44 -4t50 -10l-45 -117q-23 8 -40 12.5t-33 4.5q-47 0 -96.5 -22.5t-93.5 -56.5t-82 -76t-58 -81l-42 -158l-49 -188l-50 -186l-39 -154h-113z" />
<glyph unicode="s" horiz-adv-x="854" d="M125 129l102 66q31 -43 89.5 -72t129.5 -29q49 0 94.5 12.5t83.5 34t64.5 52t36.5 67.5q4 15 4 29q0 18 -6 37q-10 33 -35.5 60.5t-62.5 48t-80 30.5q-66 10 -117 40t-85 70.5t-46 91.5q-6 23 -6 46q0 27 8 55q16 59 57 108.5t97.5 84t125 54t138.5 19.5q96 0 174 -39 t121 -100l-109 -66q-35 45 -94 69t-131 24q-96 0 -172 -43t-94 -113q-5 -18 -5 -35q0 -48 37 -89q51 -56 150 -73q68 -10 120 -38.5t83.5 -70.5t43.5 -93q5 -23 5 -46q0 -30 -8 -61q-16 -61 -57.5 -112.5t-98.5 -87t-123.5 -56t-136.5 -20.5q-94 0 -176 37.5t-121 107.5z " />
<glyph unicode="t" horiz-adv-x="696" d="M244 0l88 334l79 294l72 269h-151l30 113h148l104 395h113l-104 -395h268l-31 -113h-268l-119 -448l-119 -449h-110z" />
<glyph unicode="u" horiz-adv-x="921" d="M177 214q-3 21 -3 44q0 50 14 104l170 662h109l-172 -662q-9 -39 -9 -74q0 -15 2 -29q5 -48 27.5 -84t60.5 -57.5t89 -21.5q45 0 94 19.5t93 52.5t80 76t56 90l185 690h110l-272 -1024h-109l27 109q-66 -57 -142.5 -92t-154.5 -35q-72 0 -127 29.5t-87 81.5t-41 121z" />
<glyph unicode="v" horiz-adv-x="1024" d="M307 1024h117l121 -856l288 429l287 427h123l-688 -1024h-106z" />
<glyph unicode="w" horiz-adv-x="1443" d="M299 1024h119l121 -854l118 176l119 178l-34 251l-33 249h127l114 -854l287 427l287 427h123l-689 -1024l-110 6l-47 367l-127 -187l-127 -186l-107 6z" />
<glyph unicode="x" horiz-adv-x="909" d="M45 0l463 530l-182 494h139l141 -397l180 200l181 197h137l-453 -510l90 -257l93 -257h-136l-153 416l-183 -208l-182 -208h-135z" />
<glyph unicode="y" horiz-adv-x="980" d="M-53 -387l45 108q38 -13 77 -13q15 0 30 2q54 7 112.5 48t122 121t135.5 207l-70 475l-67 475h117l108 -815l270 407l271 408h121l-648 -958l2 2l-74 -117l-77 -117q-37 -59 -85 -104t-100.5 -77t-105.5 -48t-102 -16q-45 0 -82 12z" />
<glyph unicode="z" horiz-adv-x="925" d="M84 0l25 106l823 805h-600l28 113h754l-27 -106l-823 -805h606l-26 -113h-760z" />
<glyph unicode="{" horiz-adv-x="456" d="M229 109l129 481q8 33 -7 54.5t-46 21.5h-55l29 110h55q31 0 58.5 22.5t35.5 53.5l123 461q18 41 68.5 66.5t103.5 25.5l-31 -115q-33 0 -33 6l-127 -471q-18 -29 -43.5 -50t-60.5 -25l-16 -56q63 -10 67 -73l-137 -512q0 2 35 2l-27 -111q-23 0 -47 8t-42.5 21.5t-28 34 t-3.5 45.5z" />
<glyph unicode="|" horiz-adv-x="268" d="M100 2l389 1454h80l-389 -1454h-80z" />
<glyph unicode="}" horiz-adv-x="385" d="M47 0l27 111q16 0 25.5 1t15.5 3l133 503q37 72 100 76q8 25 21 56q-29 6 -47.5 27.5t-18.5 47.5l125 465h-39l31 115q63 0 95 -26.5t28 -65.5l2 -13l-121 -448q-8 -31 4 -53.5t43 -22.5h55l-28 -110h-56q-31 0 -55.5 -21.5t-32.5 -54.5l-129 -481q-6 -25 -25.5 -44.5 t-45 -34t-54 -22.5t-53.5 -8z" />
<glyph unicode="~" horiz-adv-x="710" d="M287 604l59 137q41 -70 96 -69q12 0 30 6l30 10q29 16 63.5 24.5t63.5 8.5q74 0 131 -47l-66 -144q-39 78 -94 78q-10 0 -29 -6l-30 -10q-29 -16 -64 -26.5t-63 -10.5q-76 0 -127 49z" />
<glyph unicode="&#xa1;" horiz-adv-x="327" d="M115 0l319 1200h98l-319 -1200h-98zM463 1350v2q8 25 28.5 43t47.5 18q25 0 39 -18.5t6 -42.5q-6 -27 -30 -44.5t-48 -17.5q-29 0 -38 17.5t-5 42.5z" />
<glyph unicode="&#xa2;" horiz-adv-x="978" d="M156.5 318.5q-9.5 89.5 17.5 189.5t85 190t135 160t168 115t183 57l37 137h121l-37 -137q86 -10 149.5 -54t106.5 -110l-102 -82q-29 51 -75 87t-107 47l-222 -820q66 10 127.5 44t122.5 85l60 -77q-82 -66 -166 -110t-172 -54l-37 -136h-121l37 138q-86 12 -153.5 57 t-107.5 114.5t-49.5 159zM270 361.5q6 -68.5 34 -124t77 -91t115 -48.5l221 820q-72 -12 -140.5 -48t-127 -90.5t-101.5 -124t-63 -147.5q-21 -78 -15 -146.5z" />
<glyph unicode="&#xa3;" horiz-adv-x="1138" d="M203 600l28 111h240l186 694h111l-186 -694h364l-28 -111h-365l-131 -489h672l-27 -111h-782l157 600h-239z" />
<glyph unicode="&#xa4;" horiz-adv-x="1705" />
<glyph unicode="&#xa5;" horiz-adv-x="1394" d="M401 242l31 114h291l29 103h-291l31 114h290l15 58l-185 388l-186 386h149l304 -664l334 333l335 331h148l-785 -774l-14 -58h291l-31 -114h-291l-28 -103h290l-30 -114h-291q-10 -35 -17 -65l-14 -57q-6 -28 -14 -56.5l-17 -63.5h-114l61 242h-291z" />
<glyph unicode="&#xa6;" horiz-adv-x="268" d="M100 2l191 711h80l-191 -711h-80zM317 817l172 639h80l-172 -639h-80z" />
<glyph unicode="&#xa7;" horiz-adv-x="780" d="M119 68l143 186q51 -29 91 -42t73 -13q55 0 96 20h-10q-53 0 -116.5 19.5t-131.5 64.5l137 186q47 -27 90.5 -41t77.5 -14q-27 37 -67 64q-53 31 -91 74.5t-59.5 95t-25.5 106.5t10 111q31 117 133 202l8 29q18 74 61.5 131.5t99.5 97t123.5 60t135.5 20.5 q53 0 116.5 -19.5t137.5 -59.5l-143 -199q-109 61 -174 61q-23 0 -45.5 -5t-43.5 -13h7q53 0 118.5 -20.5t137.5 -57.5l-138 -201q-45 25 -80.5 39.5t-68.5 18.5q23 -25 57 -47q104 -59 147.5 -165t12.5 -218q-16 -59 -51 -111.5t-82 -95.5l-6 -25q-20 -78 -65.5 -138 t-105 -101t-127 -62.5t-130.5 -21.5q-55 0 -118.5 20.5t-133.5 63.5zM164 84q113 -70 215 -70q59 0 120.5 19.5t116 57.5t95.5 92.5t59 123.5q2 8 3 16.5t3 18.5q43 39 81 91t52 106q29 104 -13 200.5t-138 153.5q-35 23 -59.5 51.5t-36.5 59.5q10 2 36 2q78 0 166 -52 l101 142q-55 29 -111.5 45t-110.5 16q-41 0 -79 -6q25 43 73.5 66.5t104.5 23.5q72 0 164 -51l100 141q-59 33 -112.5 47.5t-104.5 14.5q-61 0 -122.5 -18.5t-113 -54.5t-89.5 -87t-56 -117q-4 -10 -6 -19.5t-4 -21.5q-100 -74 -133 -190q-27 -100 14 -200.5t141 -158.5l2 2 q78 -45 103 -118q-14 -4 -30.5 -6.5t-31.5 -2.5q-35 0 -77 13.5t-85 36.5l-96 -136q53 -35 107.5 -50t107.5 -15q23 0 42.5 1t41.5 7q-29 -47 -79 -69.5t-107 -22.5q-74 0 -156 47zM207 96l57 76q35 -20 71 -28.5t75 -8.5q41 0 79.5 11.5t72.5 33t58.5 53t36.5 74.5 q-35 -16 -66.5 -20t-62.5 -4q-49 0 -95 11t-85 36l58 80q74 -39 149 -39q57 0 107 20q-10 49 -40 93t-81 73q-94 51 -133 143.5t-15 184.5q33 113 135 178q0 29 9 53q14 57 49 103.5t81 78t101 48t113 16.5q94 0 182 -47l-59 -84q-37 23 -77 32t-77 9q-78 0 -143.5 -40 t-88.5 -118v-2q0 -2 -2 -4q57 18 119 18q98 0 187 -47l-58 -84q-74 41 -157 41q-45 0 -89 -14q10 -43 40 -86t81 -72q92 -53 130 -140t12 -185q-14 -53 -50 -101.5t-81 -83.5l-5 -24l-4 -23q-16 -61 -53 -110.5t-86 -82t-104.5 -50t-108.5 -17.5q-96 0 -182 49zM479 877 q-16 -66 14.5 -134.5t104.5 -111.5q59 -31 95 -80t46 -102q8 6 21 22q14 16 22.5 34.5t14.5 37.5q18 70 -12.5 139.5t-104.5 112.5q-57 29 -93 76t-48 100q-20 -16 -37 -42.5t-23 -51.5zM508 877q4 8 8 17t8 17q37 -94 138 -147v2q66 -39 94 -100.5t12 -122.5 q-6 -20 -14 -33q-39 94 -136 152v-3q-70 39 -98 99t-12 119zM535 819q8 -35 32.5 -69.5t71.5 -61.5h-2q33 -16 58.5 -38.5t43.5 -47.5q-4 37 -29.5 73t-68.5 60v-2q-35 16 -60.5 38.5t-45.5 47.5z" />
<glyph unicode="&#xa8;" horiz-adv-x="538" d="M416 1309q8 29 34.5 48t55.5 19t45 -19.5t8 -47.5q-8 -27 -34.5 -47.5t-55.5 -20.5t-45 20.5t-8 47.5zM682 1309q8 29 34.5 48t55.5 19t45.5 -19.5t7.5 -47.5q-8 -27 -34.5 -47.5t-55.5 -20.5t-45 20.5t-8 47.5z" />
<glyph unicode="&#xa9;" horiz-adv-x="1705" />
<glyph unicode="&#xaa;" horiz-adv-x="366" d="M242 762q14 53 64 89t112 36h55q4 27 -4 49t-27 22q-25 0 -49 -4t-59 -14l8 80q31 8 58.5 12t62.5 4q49 0 74.5 -42t9.5 -109q-4 -16 -10 -35q-4 -16 -10.5 -35.5t-10.5 -42.5q-10 -35 -8 -77t14 -58h-116v2q-27 -10 -62 -10q-59 0 -87.5 39t-14.5 94zM319 762 q-4 -20 8.5 -36.5t37.5 -16.5q23 0 46 16t27 37l15 49h-60q-25 0 -47.5 -16.5t-26.5 -32.5z" />
<glyph unicode="&#xab;" horiz-adv-x="1089" d="M199 569l671 463l50 -86l-572 -391l133 -229l131 -230l-102 -73zM537 569l671 463l49 -86l-571 -391l134 -229l130 -230l-102 -73z" />
<glyph unicode="&#xac;" horiz-adv-x="1355" d="M262 688l29 111h1184l-127 -473h-111l98 362h-1073z" />
<glyph unicode="&#xad;" horiz-adv-x="862" d="M219 545l29 110h715l-29 -110h-715z" />
<glyph unicode="&#xae;" horiz-adv-x="1705" />
<glyph unicode="&#xb0;" horiz-adv-x="512" d="M362 1202q12 45 39 84t63 66.5t79 44t90 16.5q86 0 129 -59.5t18 -151.5q-12 -43 -37.5 -80t-60.5 -64.5t-76 -44t-84 -16.5q-92 0 -137.5 60.5t-22.5 144.5zM444.5 1155.5q4.5 -22.5 17.5 -40t34.5 -28t46.5 -10.5q20 0 44.5 10.5t46 28t39 40t23.5 46.5q14 51 -13.5 92 t-70.5 41q-25 0 -51 -11t-50 -29.5t-41 -43t-24 -49.5q-6 -24 -1.5 -46.5z" />
<glyph unicode="&#xb1;" horiz-adv-x="925" d="M182 307l29 111h715l-29 -111h-715zM346 915l31 113h301l80 301h110l-80 -301h304l-31 -113h-303l-80 -301h-111l80 301h-301z" />
<glyph unicode="&#xb2;" horiz-adv-x="573" d="M223 631l21 80l407 350q27 20 46.5 50t25.5 56q16 63 -20.5 109.5t-98.5 46.5q-63 0 -151 -68l-50 70q57 41 112.5 64.5t111.5 23.5q53 0 94 -19.5t65.5 -53t31.5 -77.5t-7 -96q-12 -47 -45 -95t-68 -79l-317 -274h311l-24 -88h-445z" />
<glyph unicode="&#xb3;" horiz-adv-x="542" d="M211 719l68 53h26q16 -27 47 -45t66 -18q27 0 56.5 10t56 28.5t46 42t27.5 52.5q14 53 -18.5 93t-83.5 46h-119l23 88h120q27 2 55.5 13.5t53 28.5t42 40t23.5 45q12 47 -23.5 84t-92.5 37q-35 0 -78 -18.5t-88 -55.5l-47 70q111 92 235 92q100 0 154.5 -60.5 t32.5 -148.5q-31 -119 -144 -174q31 -33 44.5 -80t-1.5 -100q-12 -47 -41.5 -87t-69.5 -69t-88.5 -46t-97.5 -17q-66 0 -110.5 25.5t-73.5 70.5z" />
<glyph unicode="&#xb4;" horiz-adv-x="428" d="M356 1102l205 201h176l-303 -201h-78z" />
<glyph unicode="&#xb5;" horiz-adv-x="1015" d="M57 -389l377 1413h113l-195 -733q-4 -16 9.5 -49t41 -65t67.5 -56.5t87 -24.5q51 0 100.5 21.5t91.5 57.5t73.5 84t47.5 103l91 331l90 331h110l-182 -662q-23 -80 -69 -148.5t-106.5 -120.5t-131 -81.5t-144.5 -29.5q-78 0 -135 34.5t-90 92.5l-135 -498h-111z" />
<glyph unicode="&#xb6;" horiz-adv-x="782" d="M325.5 937q-10.5 60 8.5 126q18 72 61 134.5t101.5 108.5t127 72.5t140.5 26.5h94l-375 -1405h-108l192 721q-63 6 -114.5 34.5t-84 75t-43 106.5zM435 983q3 -41 20.5 -72.5t46 -50t67.5 -20.5l125 465q-41 -2 -80 -21.5t-72.5 -51.5t-59 -73t-38.5 -88q-12 -47 -9 -88z M561 0l375 1403h108l-374 -1403h-109z" />
<glyph unicode="&#xb7;" horiz-adv-x="460" d="M283 639q6 20 20 40.5t34.5 37t45.5 27t49 10.5q49 0 76 -37t16 -78q-10 -43 -56 -77t-95 -34t-74.5 34t-15.5 77z" />
<glyph unicode="&#xb9;" horiz-adv-x="538" d="M371 1184l325 221h103l-168 -627h-113l129 477l-110 -74l-109 -73z" />
<glyph unicode="&#xba;" horiz-adv-x="475" d="M260 823q12 45 38 85t59.5 68t73.5 44t81 16q78 0 116 -60.5t13 -152.5q-12 -43 -36.5 -79.5t-56.5 -64.5t-70 -43t-77 -15q-84 0 -124 58t-17 144zM338 823q-12 -47 13.5 -86t70.5 -39q41 0 84 39t55 86q14 53 -7.5 94t-61.5 41q-23 0 -47.5 -11t-46 -29.5t-38 -43 t-22.5 -51.5z" />
<glyph unicode="&#xbb;" horiz-adv-x="1073" d="M150 96l509 459l-180 197l-182 194l98 86l422 -463l-606 -546zM487 96l510 459l-180 197l-182 194l98 86l422 -463l-606 -546z" />
<glyph unicode="&#xbc;" horiz-adv-x="782" d="M297 424l137 514l-51 -33q-27 -16 -49 -33l-35 46l172 118h59l-163 -612h-70zM375 254l14 59l346 406l53 -31l-311 -364h168l41 151h70l-41 -151h98l-18 -70h-99l-32 -127l-33 -127h-70l66 254h-252z" />
<glyph unicode="&#xbd;" horiz-adv-x="727" d="M264 0l12 59l383 330q23 18 41.5 46t26.5 57q18 68 -17.5 112.5t-103.5 44.5q-33 0 -66.5 -14t-68.5 -39l-35 49q47 35 95.5 54.5t95.5 19.5q98 0 146 -65.5t24 -161.5q-12 -45 -41 -84t-64 -70l-315 -270h305l-14 -68h-404zM272 424l138 516q-23 -16 -50 -33l-51 -33 l-35 46l172 118h60l-164 -614h-70z" />
<glyph unicode="&#xbe;" horiz-adv-x="937" d="M156 393l63 45q16 -29 45 -45t68 -16q66 0 121 40t71 97q10 37 -3 65.5t-44 46t-74 23.5t-92 -2l21 72h106q59 4 110.5 39t65.5 84q14 53 -20.5 91t-97.5 38q-80 0 -154 -62l-35 49q96 80 205 80q45 0 83 -15t61.5 -42t31.5 -62.5t-2 -76.5q-14 -53 -53 -94t-92 -64 q37 -29 52 -73t1 -97q-12 -43 -40 -81t-65.5 -65.5t-83 -44t-92.5 -16.5q-53 0 -93.5 23.5t-63.5 62.5zM526 256l17 61l346 406l53 -31l-307 -364h162l41 151h71l-41 -151h99l-19 -72h-98l-68 -252h-71l67 252h-252z" />
<glyph unicode="&#xbf;" horiz-adv-x="884" d="M173 220.5q-11 70.5 11 150.5q20 78 69.5 148.5t114 124.5t140.5 86t151 32h95q-4 154 -9.5 323.5t-9.5 319.5h117l16 -653l-28 -105h-211q-53 -2 -106.5 -23.5t-99.5 -59.5t-81 -87t-49 -106q-16 -55 -8 -105.5t35.5 -88.5t71.5 -60.5t100 -22.5q74 0 147.5 42 t134.5 110l57 -82q-76 -82 -172 -133t-198 -51q-78 0 -139.5 30.5t-99.5 85t-49 125zM727 1579q10 33 32.5 52.5t55.5 19.5q27 0 42 -19.5t5 -52.5q-8 -29 -32.5 -49.5t-51.5 -20.5q-33 0 -46 20.5t-5 49.5z" />
<glyph unicode="&#xc0;" d="M51 0l897 1415h92l144 -1415h-117l-63 575h-469l-184 -287l-183 -288h-117zM606 688h387q-14 137 -28.5 259t-26.5 261l-166 -260zM805 1694h178l96 -201h-76z" />
<glyph unicode="&#xc1;" d="M51 0l897 1415h92l144 -1415h-117l-63 575h-469l-184 -287l-183 -288h-117zM606 688h387q-14 137 -28.5 259t-26.5 261l-166 -260zM964 1493l205 201h176l-303 -201h-78z" />
<glyph unicode="&#xc2;" d="M51 0l897 1415h92l144 -1415h-117l-63 575h-469l-184 -287l-183 -288h-117zM606 688h387q-14 137 -28.5 259t-26.5 261l-166 -260z" />
<glyph unicode="&#xc3;" d="M59 14l897 1416h93l143 -1416h-117l-63 576h-469l-184 -288l-183 -288h-117zM614 702h387q-14 137 -28.5 259t-26.5 262l-166 -260zM778 1567l64 137q20 -33 44.5 -51.5t51.5 -18.5q12 0 30.5 6.5t28.5 10.5q29 16 65 24t64 8q74 0 134 -47l-68 -145q-35 78 -94 78 q-12 0 -29.5 -5t-30.5 -10q-29 -16 -63.5 -26t-65.5 -10q-35 0 -68.5 12t-62.5 37z" />
<glyph unicode="&#xc4;" d="M51 0l897 1415h92l144 -1415h-117l-63 575h-469l-184 -287l-183 -288h-117zM606 688h387q-14 137 -28.5 259t-26.5 261l-166 -260zM809 1540q8 29 34.5 48t55.5 19t45 -19.5t8 -47.5q-8 -27 -34.5 -47.5t-55.5 -20.5t-45 20.5t-8 47.5zM1075 1540q8 29 34.5 48t55.5 19 t45.5 -19.5t7.5 -47.5q-8 -27 -34.5 -47.5t-55.5 -20.5t-45 20.5t-8 47.5z" />
<glyph unicode="&#xc5;" d="M51 0l897 1415h92l144 -1415h-117l-63 575h-469l-184 -287l-183 -288h-117zM606 688h387q-14 137 -28.5 259t-26.5 261l-166 -260z" />
<glyph unicode="&#xc6;" horiz-adv-x="2213" d="M53 0l899 1415h1319l-30 -108h-717l-133 -498h612l-29 -113h-612l-158 -583h717l-27 -113h-829l152 575h-678l-185 -287l-182 -288h-119zM610 688h637l183 619h-437l-191 -310z" />
<glyph unicode="&#xc7;" horiz-adv-x="1298" d="M258 452.5q-8 116.5 27 247.5q41 154 127 286t200.5 229.5t247.5 152.5t266 55q129 0 229.5 -55t164.5 -154l-99 -73q-55 82 -137 128t-186 46q-113 0 -223.5 -49t-206 -133t-168 -196t-105.5 -237q-33 -123 -20.5 -233.5t61.5 -194.5t134 -133t198 -49q104 0 209.5 46 t204.5 124l59 -76q-123 -100 -253 -150t-263 -52l-6 -11.5t-8 -11.5q27 -10 53.5 -43t13.5 -78q-8 -31 -42 -65.5t-107 -69.5l-88 80q10 0 32.5 3t46 9t43 17.5t23.5 29.5q4 14 -4 23.5t-20.5 14.5t-26.5 7t-25 2h-30l30 107q-100 27 -177 90.5t-122 156.5t-53 209.5z" />
<glyph unicode="&#xc8;" horiz-adv-x="993" d="M82 0l377 1415h827l-31 -108h-714l-133 -498h612l-29 -113h-612l-158 -583h715l-27 -113h-827zM664 1694h178l96 -201h-76z" />
<glyph unicode="&#xc9;" horiz-adv-x="993" d="M82 0l377 1415h827l-31 -108h-714l-133 -498h612l-29 -113h-612l-158 -583h715l-27 -113h-827zM794 1493l205 201h176l-303 -201h-78z" />
<glyph unicode="&#xca;" horiz-adv-x="993" d="M82 0l377 1415h827l-31 -108h-714l-133 -498h612l-29 -113h-612l-158 -583h715l-27 -113h-827zM667 1536l297 231l172 -233l-90 -70l-119 166l-211 -166z" />
<glyph unicode="&#xcb;" horiz-adv-x="993" d="M82 0l377 1415h827l-31 -108h-714l-133 -498h612l-29 -113h-612l-158 -583h715l-27 -113h-827zM695 1542q8 29 34.5 48t55.5 19t45 -19.5t8 -47.5q-8 -27 -34.5 -47.5t-55.5 -20.5t-45 20.5t-8 47.5zM961 1542q8 29 34.5 48t55.5 19t45.5 -19.5t7.5 -47.5 q-8 -27 -34.5 -47.5t-55.5 -20.5t-45 20.5t-8 47.5z" />
<glyph unicode="&#xcc;" horiz-adv-x="268" d="M104 0l377 1415h113l-377 -1415h-113zM369 1694h178l96 -201h-76z" />
<glyph unicode="&#xcd;" horiz-adv-x="315" d="M88 0l377 1415h113l-377 -1415h-113zM495 1493l205 201h176l-303 -201h-78z" />
<glyph unicode="&#xce;" horiz-adv-x="282" d="M88 0l377 1415h113l-377 -1415h-113z" />
<glyph unicode="&#xcf;" horiz-adv-x="282" d="M88 0l377 1415h113l-377 -1415h-113zM348 1540q8 29 34.5 48t55.5 19t45 -19.5t8 -47.5q-8 -27 -34.5 -47.5t-55.5 -20.5t-45 20.5t-8 47.5zM614 1540q8 29 34.5 48t55.5 19t45.5 -19.5t7.5 -47.5q-8 -27 -34.5 -47.5t-55.5 -20.5t-45 20.5t-8 47.5z" />
<glyph unicode="&#xd0;" horiz-adv-x="1337" d="M217 0l145 551h-135l29 111h135l203 753h526q102 -2 178 -57t118 -150.5t46 -223.5t-35 -273t-110.5 -273.5t-163.5 -223.5t-196.5 -152.5t-208.5 -61.5h-531zM356 113q104 0 210 2t210 2q80 2 162 50t154.5 128t131 187.5t91.5 228.5t32 228.5t-32 187t-88.5 126.5 t-136.5 50h-414l-172 -641h350l-29 -111h-350z" />
<glyph unicode="&#xd1;" horiz-adv-x="1099" d="M88 0l377 1415h104l379 -1179l318 1179h112l-377 -1415h-106l-381 1186l-159 -594l-156 -592h-111zM731 1520l62 137q39 -70 96 -69q12 0 28.5 6l28.5 10q66 33 129 33q72 0 131 -47l-67 -144q-35 78 -92 78q-10 0 -30 -6l-32 -10q-29 -16 -62.5 -26.5t-62.5 -10.5 q-74 0 -129 49z" />
<glyph unicode="&#xd2;" horiz-adv-x="1413" d="M215 420q-5 38 -5 78q0 99 30 209q39 150 125 279.5t199.5 227t246.5 153.5t266 56q137 0 240.5 -56t163 -152.5t72.5 -227.5q3 -33 4 -68q0 -101 -29 -212q-43 -160 -130 -294t-208 -233q-115 -96 -242 -147t-258 -51q-129 0 -231.5 55t-165 152.5t-78.5 230.5zM331 468 q11 -112 60 -195t134 -130t196 -47q115 0 225.5 47t203.5 130t163.5 195t105.5 239q25 96 25 182q0 33 -3 64q-13 114 -73 196q-49 78 -132 119t-189 41q-111 0 -220.5 -47.5t-203 -128t-165 -191.5t-104.5 -235q-26 -96 -26 -184q0 -28 3 -55zM850 1694h178l96 -201h-76z " />
<glyph unicode="&#xd3;" horiz-adv-x="1413" d="M215 420q-5 38 -5 78q0 99 30 209q39 150 125 279.5t199.5 227t246.5 153.5t266 56q137 0 240.5 -56t163 -152.5t72.5 -227.5q3 -33 4 -68q0 -101 -29 -212q-43 -160 -130 -294t-208 -233q-115 -96 -242 -147t-258 -51q-129 0 -231.5 55t-165 152.5t-78.5 230.5zM331 468 q11 -112 60 -195t134 -130t196 -47q115 0 225.5 47t203.5 130t163.5 195t105.5 239q25 96 25 182q0 33 -3 64q-13 114 -73 196q-49 78 -132 119t-189 41q-111 0 -220.5 -47.5t-203 -128t-165 -191.5t-104.5 -235q-26 -96 -26 -184q0 -28 3 -55zM1077 1493l205 201h176 l-303 -201h-78z" />
<glyph unicode="&#xd4;" horiz-adv-x="1413" d="M215 420q-5 38 -5 78q0 99 30 209q39 150 125 279.5t199.5 227t246.5 153.5t266 56q137 0 240.5 -56t163 -152.5t72.5 -227.5q3 -33 4 -68q0 -101 -29 -212q-43 -160 -130 -294t-208 -233q-115 -96 -242 -147t-258 -51q-129 0 -231.5 55t-165 152.5t-78.5 230.5zM331 468 q11 -112 60 -195t134 -130t196 -47q115 0 225.5 47t203.5 130t163.5 195t105.5 239q25 96 25 182q0 33 -3 64q-13 114 -73 196q-49 78 -132 119t-189 41q-111 0 -220.5 -47.5t-203 -128t-165 -191.5t-104.5 -235q-26 -96 -26 -184q0 -28 3 -55zM876 1536l297 231l172 -233 l-90 -70l-119 166l-211 -166z" />
<glyph unicode="&#xd5;" horiz-adv-x="1413" d="M215 420q-5 38 -5 78q0 99 30 209q39 150 125 279.5t199.5 227t246.5 153.5t266 56q137 0 240.5 -56t163 -152.5t72.5 -227.5q3 -33 4 -68q0 -101 -29 -212q-43 -160 -130 -294t-208 -233q-115 -96 -242 -147t-258 -51q-129 0 -231.5 55t-165 152.5t-78.5 230.5zM331 468 q11 -112 60 -195t134 -130t196 -47q115 0 225.5 47t203.5 130t163.5 195t105.5 239q25 96 25 182q0 33 -3 64q-13 114 -73 196q-49 78 -132 119t-189 41q-111 0 -220.5 -47.5t-203 -128t-165 -191.5t-104.5 -235q-26 -96 -26 -184q0 -28 3 -55zM887 1522l62 137 q39 -70 96 -69q12 0 28.5 6l28.5 10q66 33 129 33q72 0 131 -47l-67 -144q-35 78 -92 78q-10 0 -30 -6l-32 -10q-29 -16 -62.5 -26.5t-62.5 -10.5q-74 0 -129 49z" />
<glyph unicode="&#xd6;" horiz-adv-x="1413" d="M215 420q-5 38 -5 78q0 99 30 209q39 150 125 279.5t199.5 227t246.5 153.5t266 56q137 0 240.5 -56t163 -152.5t72.5 -227.5q3 -33 4 -68q0 -101 -29 -212q-43 -160 -130 -294t-208 -233q-115 -96 -242 -147t-258 -51q-129 0 -231.5 55t-165 152.5t-78.5 230.5zM331 468 q11 -112 60 -195t134 -130t196 -47q115 0 225.5 47t203.5 130t163.5 195t105.5 239q25 96 25 182q0 33 -3 64q-13 114 -73 196q-49 78 -132 119t-189 41q-111 0 -220.5 -47.5t-203 -128t-165 -191.5t-104.5 -235q-26 -96 -26 -184q0 -28 3 -55zM905 1542q8 29 34.5 48 t55.5 19t45 -19.5t8 -47.5q-8 -27 -34.5 -47.5t-55.5 -20.5t-45 20.5t-8 47.5zM1171 1542q8 29 34.5 48t55.5 19t45.5 -19.5t7.5 -47.5q-8 -27 -34.5 -47.5t-55.5 -20.5t-45 20.5t-8 47.5z" />
<glyph unicode="&#xd7;" horiz-adv-x="751" d="M178 426l271 215l-154 211l98 80l158 -213l268 213l60 -78l-273 -213l80 -107l78 -108l-98 -78l-158 213l-270 -213z" />
<glyph unicode="&#xd8;" horiz-adv-x="1413" d="M211 501.5q0 98.5 29 205.5q39 150 125 279.5t199.5 227t246.5 153.5t266 56q47 0 95.5 -8t89.5 -22q4 6 6 12t6 10h119l-41 -67q135 -96 183 -263t-7 -378q-43 -160 -130 -294t-208 -233q-115 -96 -242 -147t-258 -51q-100 0 -180 30l-4 -12h-125l37 61q-66 43 -112 109 t-70.5 149.5t-24.5 182zM343 387q36 -141 138 -219l356 559l355 557q-35 14 -70 19.5t-75 5.5q-111 0 -220.5 -47.5t-203 -128t-165 -191.5t-104.5 -235q-47 -179 -11 -320zM573 121q35 -14 71 -19.5t77 -5.5q115 0 225.5 47t203.5 130t163.5 195t105.5 239 q35 133 21.5 246.5t-72.5 195.5q-20 29 -39.5 50.5t-44.5 39.5l-355 -560z" />
<glyph unicode="&#xd9;" horiz-adv-x="1224" d="M174 360l283 1055h118l-282 -1055q-2 -14 -2 -28q0 -38 16 -72q23 -47 68 -84t111.5 -58.5t148.5 -21.5q78 0 153.5 21.5t140 58.5t111.5 84t70 100l283 1055h112l-282 -1055q-25 -78 -85.5 -146.5t-145.5 -120.5t-185 -81.5t-203 -29.5q-109 0 -194.5 29.5t-143 81.5 t-83.5 121q-16 42 -15 87q0 29 6 59zM793 1694h178l96 -201h-76z" />
<glyph unicode="&#xda;" horiz-adv-x="1224" d="M174 360l283 1055h118l-282 -1055q-2 -14 -2 -28q0 -38 16 -72q23 -47 68 -84t111.5 -58.5t148.5 -21.5q78 0 153.5 21.5t140 58.5t111.5 84t70 100l283 1055h112l-282 -1055q-25 -78 -85.5 -146.5t-145.5 -120.5t-185 -81.5t-203 -29.5q-109 0 -194.5 29.5t-143 81.5 t-83.5 121q-16 42 -15 87q0 29 6 59zM956 1493l205 201h176l-303 -201h-78z" />
<glyph unicode="&#xdb;" horiz-adv-x="1224" d="M174 360l283 1055h118l-282 -1055q-2 -14 -2 -28q0 -38 16 -72q23 -47 68 -84t111.5 -58.5t148.5 -21.5q78 0 153.5 21.5t140 58.5t111.5 84t70 100l283 1055h112l-282 -1055q-25 -78 -85.5 -146.5t-145.5 -120.5t-185 -81.5t-203 -29.5q-109 0 -194.5 29.5t-143 81.5 t-83.5 121q-16 42 -15 87q0 29 6 59zM782 1536l297 231l172 -233l-90 -70l-119 166l-211 -166z" />
<glyph unicode="&#xdc;" horiz-adv-x="1224" d="M174 360l283 1055h118l-282 -1055q-2 -14 -2 -28q0 -38 16 -72q23 -47 68 -84t111.5 -58.5t148.5 -21.5q78 0 153.5 21.5t140 58.5t111.5 84t70 100l283 1055h112l-282 -1055q-25 -78 -85.5 -146.5t-145.5 -120.5t-185 -81.5t-203 -29.5q-109 0 -194.5 29.5t-143 81.5 t-83.5 121q-16 42 -15 87q0 29 6 59zM811 1540q8 29 34.5 48t55.5 19t45 -19.5t8 -47.5q-8 -27 -34.5 -47.5t-55.5 -20.5t-45 20.5t-8 47.5zM1077 1540q8 29 34.5 48t55.5 19t45.5 -19.5t7.5 -47.5q-8 -27 -34.5 -47.5t-55.5 -20.5t-45 20.5t-8 47.5z" />
<glyph unicode="&#xdd;" horiz-adv-x="1394" d="M428 1415h150l307 -667l336 333l338 334h147l-791 -778l-84 -319l-83 -318h-115l168 637l-188 389zM1058 1493l205 201h176l-303 -201h-78z" />
<glyph unicode="&#xde;" horiz-adv-x="1095" d="M10 -393l486 1810h112l-116 -438q63 33 139 51.5t162 18.5q102 -2 182 -45t127 -115t60.5 -167t-15.5 -204q-31 -111 -95.5 -209t-151.5 -170.5t-188.5 -114.5t-205.5 -42q-86 0 -149.5 21.5t-116.5 47.5l-119 -444h-111zM283 203q-8 -20 8 -40t51 -34t85 -23.5 t110 -11.5q78 2 156.5 36t146 91.5t119 133t73.5 161.5q23 84 12.5 160t-47 133t-97 91t-138.5 34q-55 0 -106.5 -8t-93.5 -21.5t-72.5 -32t-43.5 -36.5z" />
<glyph unicode="&#xdf;" horiz-adv-x="1064" d="M4 -344l469 1749h455q78 -2 139 -30.5t100 -77t51.5 -112t-6.5 -132.5q-27 -98 -98.5 -178t-165.5 -130q84 -49 116 -141t3 -201q-23 -80 -73 -152.5t-118.5 -126.5t-152.5 -86t-170 -34h-174l-80 107h283q61 2 121.5 26.5t111.5 64.5t87 92t52 109q14 55 5 106.5 t-41.5 90.5t-87 63.5t-128.5 28.5h-307l-278 -1036h-113zM426 803h342q55 2 109.5 21.5t98.5 53t76.5 77.5t47.5 98q12 47 4 90t-36 75.5t-71 53t-98 24.5h-342z" />
<glyph unicode="&#xe0;" horiz-adv-x="831" d="M165 174q-5 23 -5 48q0 35 10 73q18 66 60 124t99.5 101t125 68.5t135.5 25.5h225l12 48q13 50 14 94q0 51 -18 89q-16 36 -45.5 57.5t-70.5 23.5q-53 0 -84 -7l-72 -18q-6 -2 -20.5 -6t-18.5 -6l-2 104l59 19q27 8 51.5 13t52 8t64.5 3q61 -2 108.5 -30.5t75 -75.5 t34.5 -111q2 -19 3 -39q0 -46 -12 -96l-6 -22l-88 -324l-33 -121l-30 -106l-21 -78q-8 -31 -8 -33h-109l17 63q-55 -37 -119 -59t-129 -22q-68 0 -122 24.5t-88 67.5t-45 100zM281 295q-7 -27 -7 -51q0 -53 34 -92q50 -57 143 -58q47 0 92 15.5t83 43t64.5 64.5t38.5 80 l55 203q-84 0 -129 1t-66 1h-26h-4q-45 0 -90 -16.5t-83 -45t-65.5 -65.5t-39.5 -80zM606 1303h178l96 -201h-76z" />
<glyph unicode="&#xe1;" horiz-adv-x="831" d="M165 174q-5 23 -5 48q0 35 10 73q18 66 60 124t99.5 101t125 68.5t135.5 25.5h225l12 48q13 50 14 94q0 51 -18 89q-16 36 -45.5 57.5t-70.5 23.5q-53 0 -84 -7l-72 -18q-6 -2 -20.5 -6t-18.5 -6l-2 104l59 19q27 8 51.5 13t52 8t64.5 3q61 -2 108.5 -30.5t75 -75.5 t34.5 -111q2 -19 3 -39q0 -46 -12 -96l-6 -22l-88 -324l-33 -121l-30 -106l-21 -78q-8 -31 -8 -33h-109l17 63q-55 -37 -119 -59t-129 -22q-68 0 -122 24.5t-88 67.5t-45 100zM281 295q-7 -27 -7 -51q0 -53 34 -92q50 -57 143 -58q47 0 92 15.5t83 43t64.5 64.5t38.5 80 l55 203q-84 0 -129 1t-66 1h-26h-4q-45 0 -90 -16.5t-83 -45t-65.5 -65.5t-39.5 -80zM702 1102l205 201h176l-303 -201h-78z" />
<glyph unicode="&#xe2;" horiz-adv-x="831" d="M165 174q-5 23 -5 48q0 35 10 73q18 66 60 124t99.5 101t125 68.5t135.5 25.5h225l12 48q13 50 14 94q0 51 -18 89q-16 36 -45.5 57.5t-70.5 23.5q-53 0 -84 -7l-72 -18q-6 -2 -20.5 -6t-18.5 -6l-2 104l59 19q27 8 51.5 13t52 8t64.5 3q61 -2 108.5 -30.5t75 -75.5 t34.5 -111q2 -19 3 -39q0 -46 -12 -96l-6 -22l-88 -324l-33 -121l-30 -106l-21 -78q-8 -31 -8 -33h-109l17 63q-55 -37 -119 -59t-129 -22q-68 0 -122 24.5t-88 67.5t-45 100zM281 295q-7 -27 -7 -51q0 -53 34 -92q50 -57 143 -58q47 0 92 15.5t83 43t64.5 64.5t38.5 80 l55 203q-84 0 -129 1t-66 1h-26h-4q-45 0 -90 -16.5t-83 -45t-65.5 -65.5t-39.5 -80zM557 1145l297 231l172 -233l-90 -70l-119 166l-211 -166z" />
<glyph unicode="&#xe3;" horiz-adv-x="831" d="M171 188.5q-11 57.5 5 120.5q18 66 60.5 124.5t99.5 101.5t124.5 68.5t135.5 25.5h225l13 47q14 53 13 100t-17.5 83t-46 57.5t-70.5 23.5q-53 0 -84 -7l-72 -18q-6 -2 -20.5 -6t-18.5 -6l-2 105l59 18q27 8 51.5 13t52.5 8.5t64 3.5q61 -2 108.5 -31t75 -76t35 -110.5 t-9.5 -135.5l-6 -22l-88 -324l-33 -121l-29 -106l-22 -78q-8 -31 -8 -33h-109l17 64q-55 -37 -118.5 -59.5t-129.5 -22.5q-68 0 -122 24.5t-88 67.5t-45 100.5zM287 309q-23 -86 27.5 -143t142.5 -57q47 0 92 15t83 43t64.5 64.5t38.5 79.5l56 203q-84 0 -129.5 1t-66.5 1 h-26h-4q-45 0 -90 -16.5t-83 -45t-65.5 -65.5t-39.5 -80zM563 1186l58 123q43 -61 96 -62q23 0 61 15q29 14 60.5 20t60.5 6q74 0 135 -41l-59 -121q-18 29 -44 46.5t-54 17.5q-27 0 -62 -14q-29 -16 -60.5 -23.5t-60.5 -7.5q-74 0 -131 41z" />
<glyph unicode="&#xe4;" horiz-adv-x="831" d="M171 188.5q-11 57.5 5 120.5q18 66 60.5 124.5t99.5 101.5t124.5 68.5t135.5 25.5h225l13 47q14 53 13 100t-17.5 83t-46 57.5t-70.5 23.5q-53 0 -84 -7l-72 -18q-6 -2 -20.5 -6t-18.5 -6l-2 105l59 18q27 8 51.5 13t52.5 8.5t64 3.5q61 -2 108.5 -31t75 -76t35 -110.5 t-9.5 -135.5l-6 -22l-88 -324l-33 -121l-29 -106l-22 -78q-8 -31 -8 -33h-109l17 64q-55 -37 -118.5 -59.5t-129.5 -22.5q-68 0 -122 24.5t-88 67.5t-45 100.5zM287 309q-23 -86 27.5 -143t142.5 -57q47 0 92 15t83 43t64.5 64.5t38.5 79.5l56 203q-84 0 -129.5 1t-66.5 1 h-26h-4q-45 0 -90 -16.5t-83 -45t-65.5 -65.5t-39.5 -80zM641 1278q6 27 32.5 47.5t57.5 20.5q29 0 44.5 -20.5t8.5 -47.5q-8 -29 -34.5 -49.5t-55.5 -20.5q-31 0 -46 20.5t-7 49.5zM907 1278q6 27 34 47.5t56 20.5q29 0 44.5 -20.5t9.5 -47.5q-8 -29 -35 -49.5t-55 -20.5 q-29 0 -45.5 20.5t-8.5 49.5z" />
<glyph unicode="&#xe5;" horiz-adv-x="835" d="M122 174q-5 23 -5 48q0 35 10 73q18 66 60 124t99.5 101t125 68.5t135.5 25.5h225l12 48q13 50 14 94q0 51 -18 89q-16 36 -45.5 57.5t-70.5 23.5q-53 0 -84 -7l-72 -18q-6 -2 -20.5 -6t-18.5 -6l-2 104l59 19q27 8 51.5 13t52 8t64.5 3q61 -2 108.5 -30.5t75 -75.5 t34.5 -111q2 -19 3 -39q0 -46 -12 -96l-6 -22l-88 -324l-33 -121l-30 -106l-21 -78q-8 -31 -8 -33h-109l17 63q-55 -37 -119 -59t-129 -22q-68 0 -122 24.5t-88 67.5t-45 100zM238 295q-7 -27 -7 -51q0 -53 34 -92q50 -57 143 -58q47 0 92 15.5t83 43t64.5 64.5t38.5 80 l55 203q-84 0 -129 1t-66 1h-26h-4q-45 0 -90 -16.5t-83 -45t-65.5 -65.5t-39.5 -80z" />
<glyph unicode="&#xe6;" horiz-adv-x="1521" d="M146.5 172q-11.5 57 7.5 123q18 66 60 124t99.5 101t125 67.5t136.5 24.5h216q4 12 12 27.5l14 26.5q27 111 -12 182.5t-121 75.5q-61 0 -123.5 -8.5t-124.5 -24.5v106q70 18 139.5 28.5t141.5 10.5q88 -4 144.5 -56t72.5 -140q82 92 179 145t194 53q86 0 149.5 -40 t100 -109.5t43 -163.5t-22.5 -205l-16 -61h-693l-20 -74q0 -61 15.5 -114.5t45 -93.5t72.5 -62.5t96 -22.5q31 0 69 7t76 18.5t73 25.5l67 27l18 -98q-133 -63 -280 -88q-12 -2 -26 -2h-27q-92 0 -159 38.5t-106 110.5q-12 -47 -10 -79t27 -52h-160l16 61 q-57 -37 -121.5 -59t-127.5 -22q-70 0 -124.5 24.5t-89 67.5t-46 100zM268 295q-23 -86 25.5 -143.5t142.5 -57.5q45 0 91 15.5t84 43t66 63.5t40 79l16 57q-2 27 2 56.5t10 64.5l9 29h-209q-47 0 -92 -16.5t-82 -45t-64 -65.5t-39 -80zM899 567h580q14 76 6 141.5 t-36 113.5t-72 75t-101 27q-55 0 -113.5 -27t-108.5 -74t-91 -112.5t-64 -143.5z" />
<glyph unicode="&#xe7;" horiz-adv-x="1009" d="M184.5 325q-8.5 87 18.5 185q29 109 93 204t150 166.5t187.5 113.5t204.5 42q104 0 186 -46t131 -126l-100 -78q-41 63 -105.5 100.5t-142.5 37.5q-80 0 -158 -33t-144.5 -88t-116.5 -131t-73 -162t-13.5 -162t46.5 -132t97.5 -89t140.5 -33q78 0 158.5 35t152.5 94 l59 -78q-82 -68 -177 -110.5t-191 -52.5l-19 -29q27 -10 53.5 -43t14.5 -80q-8 -29 -43 -63.5t-107 -73.5l-77 78q16 2 37.5 6t41 11t34 16.5t18.5 21.5q4 18 -2.5 29.5t-18.5 17.5t-26.5 8t-24.5 2q-4 0 -6 -1t-4 -1h-23l33 109q-82 16 -143.5 63t-97 116t-44 156z" />
<glyph unicode="&#xe8;" horiz-adv-x="933" d="M165 281q-5 33 -5 68q0 60 14 124l10 37q29 109 87.5 205t134 167.5t161.5 113.5t170 42q86 0 150.5 -35.5t101.5 -101t44 -157.5l2 -37q0 -76 -23 -164l-19 -64h-702q-9 -47 -9 -92q0 -29 4 -56q9 -71 37.5 -123t77 -83t111.5 -31q41 0 86 8.5t88 21.5t83 29.5t69 34.5 l16 -104q-66 -41 -155 -65.5t-169 -34.5q-10 -2 -26 -2h-27q-86 0 -151.5 37.5t-106.5 104.5t-54 157zM324 590h591q4 32 4 62q0 37 -6 71q-10 61 -37.5 105t-70.5 70t-98 26t-112.5 -23.5t-108 -68t-93 -105.5t-69.5 -137zM604 1303h178l96 -201h-76z" />
<glyph unicode="&#xe9;" horiz-adv-x="933" d="M165 281q-5 33 -5 68q0 60 14 124l10 37q29 109 87.5 205t134 167.5t161.5 113.5t170 42q86 0 150.5 -35.5t101.5 -101t44 -157.5l2 -37q0 -76 -23 -164l-19 -64h-702q-9 -47 -9 -92q0 -29 4 -56q9 -71 37.5 -123t77 -83t111.5 -31q41 0 86 8.5t88 21.5t83 29.5t69 34.5 l16 -104q-66 -41 -155 -65.5t-169 -34.5q-10 -2 -26 -2h-27q-86 0 -151.5 37.5t-106.5 104.5t-54 157zM324 590h591q4 32 4 62q0 37 -6 71q-10 61 -37.5 105t-70.5 70t-98 26t-112.5 -23.5t-108 -68t-93 -105.5t-69.5 -137zM723 1102l205 201h176l-303 -201h-78z" />
<glyph unicode="&#xea;" horiz-adv-x="933" d="M165 281q-5 33 -5 68q0 60 14 124l10 37q29 109 87.5 205t134 167.5t161.5 113.5t170 42q86 0 150.5 -35.5t101.5 -101t44 -157.5l2 -37q0 -76 -23 -164l-19 -64h-702q-9 -47 -9 -92q0 -29 4 -56q9 -71 37.5 -123t77 -83t111.5 -31q41 0 86 8.5t88 21.5t83 29.5t69 34.5 l16 -104q-66 -41 -155 -65.5t-169 -34.5q-10 -2 -26 -2h-27q-86 0 -151.5 37.5t-106.5 104.5t-54 157zM324 590h591q4 32 4 62q0 37 -6 71q-10 61 -37.5 105t-70.5 70t-98 26t-112.5 -23.5t-108 -68t-93 -105.5t-69.5 -137zM530 1145l297 231l172 -233l-90 -70l-119 166 l-211 -166z" />
<glyph unicode="&#xeb;" horiz-adv-x="933" d="M165 281q-5 33 -5 68q0 60 14 124l10 37q29 109 87.5 205t134 167.5t161.5 113.5t170 42q86 0 150.5 -35.5t101.5 -101t44 -157.5l2 -37q0 -76 -23 -164l-19 -64h-702q-9 -47 -9 -92q0 -29 4 -56q9 -71 37.5 -123t77 -83t111.5 -31q41 0 86 8.5t88 21.5t83 29.5t69 34.5 l16 -104q-66 -41 -155 -65.5t-169 -34.5q-10 -2 -26 -2h-27q-86 0 -151.5 37.5t-106.5 104.5t-54 157zM324 590h591q4 32 4 62q0 37 -6 71q-10 61 -37.5 105t-70.5 70t-98 26t-112.5 -23.5t-108 -68t-93 -105.5t-69.5 -137zM606 1309q8 29 34.5 48t55.5 19t45 -19.5t8 -47.5 q-8 -27 -34.5 -47.5t-55.5 -20.5t-45 20.5t-8 47.5zM872 1309q8 29 34.5 48t55.5 19t45.5 -19.5t7.5 -47.5q-8 -27 -34.5 -47.5t-55.5 -20.5t-45 20.5t-8 47.5z" />
<glyph unicode="&#xec;" horiz-adv-x="432" d="M180 0l271 1024h108l-270 -1024h-109zM348 1317h178l97 -201h-76z" />
<glyph unicode="&#xed;" horiz-adv-x="432" d="M121 0l270 1024h111l-271 -1024h-110zM377 1116l205 201h176l-303 -201h-78z" />
<glyph unicode="&#xee;" horiz-adv-x="362" d="M121 0l270 1024h109l-271 -1024h-108zM256 1159l297 232l172 -234l-90 -70l-119 166l-211 -166z" />
<glyph unicode="&#xef;" horiz-adv-x="362" d="M121 0l270 1024h109l-271 -1024h-108zM360 1309q8 29 35 48t56 19t45 -19.5t8 -47.5q-8 -27 -35 -47.5t-55 -20.5q-29 0 -45.5 20.5t-8.5 47.5zM549 1309q8 29 33.5 48t56.5 19q29 0 45 -19.5t8 -47.5q-8 -27 -34.5 -47.5t-55.5 -20.5q-31 0 -46 20.5t-7 47.5z" />
<glyph unicode="&#xf0;" horiz-adv-x="1001" d="M152 166l124 84q31 -72 90.5 -111t135.5 -39q63 0 123.5 21.5t114 58.5t97.5 88t72 111q63 147 107 313l6 25q-76 -66 -176.5 -110t-202.5 -44q-84 0 -151.5 32t-110.5 87t-58.5 130t7.5 161l4 14q23 88 77 166t127.5 136.5t160.5 92t178 33.5q86 0 152.5 -33.5 t108.5 -92t57 -134.5t-1 -162q-12 -66 -32 -140l-36 -140l-14 -54q-23 -82 -48.5 -158.5t-57.5 -148.5q-37 -82 -97.5 -149.5t-133.5 -115.5t-154.5 -74.5t-163.5 -26.5q-102 0 -182 50t-123 130zM435 858q11 -55 44 -96t82 -64.5t113 -23.5q68 0 133 24.5t120.5 67.5 t95.5 100.5t58 124.5q16 63 5 119.5t-42.5 98.5t-83 66.5t-112.5 24.5q-68 0 -134.5 -26.5t-121.5 -70.5t-96 -103.5t-60 -122.5q-12 -64 -1 -119z" />
<glyph unicode="&#xf1;" horiz-adv-x="886" d="M80 14l270 1024h113l-29 -110q66 61 141.5 94t155.5 33q72 0 127 -30t88 -81t42 -119.5t-9 -148.5l-170 -662h-111l174 662q14 55 9.5 104t-27.5 85t-59.5 56.5t-87.5 20.5q-45 0 -94.5 -19.5t-94.5 -51t-83 -74.5t-60 -92l-42 -158l-49 -190l-51 -188l-40 -155h-113z M526 1174l60 122q18 -29 43.5 -45t50.5 -16q29 0 61 14q31 16 63 22.5t62 6.5q68 0 133 -43l-61 -121q-16 29 -42 46.5t-52 17.5q-29 0 -62 -15q-57 -29 -123 -28q-35 0 -69.5 9.5t-63.5 29.5z" />
<glyph unicode="&#xf2;" horiz-adv-x="1079" d="M156 302q-4 29 -4 58q0 69 20 146q29 111 93.5 207t148.5 167.5t183 113.5t198 42q98 0 173.5 -42t122 -113.5t57.5 -167.5q3 -27 3 -56q0 -72 -21 -151q-29 -109 -92 -204t-147 -167t-182.5 -113.5t-196.5 -41.5t-175 41.5t-123 113.5t-58 167zM270 345q8 -75 43 -131 t93.5 -89t136.5 -33q76 0 150.5 33t139 89t113.5 131t72 161q17 63 16 121q0 21 -2 42q-8 77 -43 133t-92 89t-133 33q-78 0 -153.5 -33t-140 -89.5t-114 -133t-71.5 -162.5q-17 -63 -17 -120q0 -21 2 -41zM631 1303h178l96 -201h-76z" />
<glyph unicode="&#xf3;" horiz-adv-x="1079" d="M156 302q-4 29 -4 58q0 69 20 146q29 111 93.5 207t148.5 167.5t183 113.5t198 42q98 0 173.5 -42t122 -113.5t57.5 -167.5q3 -27 3 -56q0 -72 -21 -151q-29 -109 -92 -204t-147 -167t-182.5 -113.5t-196.5 -41.5t-175 41.5t-123 113.5t-58 167zM270 345q8 -75 43 -131 t93.5 -89t136.5 -33q76 0 150.5 33t139 89t113.5 131t72 161q17 63 16 121q0 21 -2 42q-8 77 -43 133t-92 89t-133 33q-78 0 -153.5 -33t-140 -89.5t-114 -133t-71.5 -162.5q-17 -63 -17 -120q0 -21 2 -41zM778 1102l205 201h176l-303 -201h-78z" />
<glyph unicode="&#xf4;" horiz-adv-x="1050" d="M156 302q-4 29 -4 58q0 69 20 146q29 111 93.5 207t148.5 167.5t183 113.5t198 42q98 0 173.5 -42t122 -113.5t57.5 -167.5q3 -27 3 -56q0 -72 -21 -151q-29 -109 -92 -204t-147 -167t-182.5 -113.5t-196.5 -41.5t-175 41.5t-123 113.5t-58 167zM270 345q8 -75 43 -131 t93.5 -89t136.5 -33q76 0 150.5 33t139 89t113.5 131t72 161q17 63 16 121q0 21 -2 42q-8 77 -43 133t-92 89t-133 33q-78 0 -153.5 -33t-140 -89.5t-114 -133t-71.5 -162.5q-17 -63 -17 -120q0 -21 2 -41zM590 1145l297 231l172 -233l-90 -70l-119 166l-211 -166z" />
<glyph unicode="&#xf5;" horiz-adv-x="1050" d="M156 302q-4 29 -4 58q0 69 20 146q29 111 93.5 207t148.5 167.5t183 113.5t198 42q98 0 173.5 -42t122 -113.5t57.5 -167.5q3 -27 3 -56q0 -72 -21 -151q-29 -109 -92 -204t-147 -167t-182.5 -113.5t-196.5 -41.5t-175 41.5t-123 113.5t-58 167zM270 345q8 -75 43 -131 t93.5 -89t136.5 -33q76 0 150.5 33t139 89t113.5 131t72 161q17 63 16 121q0 21 -2 42q-8 77 -43 133t-92 89t-133 33q-78 0 -153.5 -33t-140 -89.5t-114 -133t-71.5 -162.5q-17 -63 -17 -120q0 -21 2 -41zM635 1196l62 137q39 -70 96 -69q12 0 28.5 6l28.5 10q66 33 129 33 q72 0 131 -47l-67 -144q-35 78 -92 78q-10 0 -30 -6l-32 -10q-29 -16 -62.5 -26.5t-62.5 -10.5q-74 0 -129 49z" />
<glyph unicode="&#xf6;" horiz-adv-x="1079" d="M156 302q-4 29 -4 58q0 69 20 146q29 111 93.5 207t148.5 167.5t183 113.5t198 42q98 0 173.5 -42t122 -113.5t57.5 -167.5q3 -27 3 -56q0 -72 -21 -151q-29 -109 -92 -204t-147 -167t-182.5 -113.5t-196.5 -41.5t-175 41.5t-123 113.5t-58 167zM270 345q8 -75 43 -131 t93.5 -89t136.5 -33q76 0 150.5 33t139 89t113.5 131t72 161q17 63 16 121q0 21 -2 42q-8 77 -43 133t-92 89t-133 33q-78 0 -153.5 -33t-140 -89.5t-114 -133t-71.5 -162.5q-17 -63 -17 -120q0 -21 2 -41zM690 1309q8 29 34.5 48t55.5 19t45 -19.5t8 -47.5 q-8 -27 -34.5 -47.5t-55.5 -20.5t-45 20.5t-8 47.5zM956 1309q8 29 34.5 48t55.5 19t45.5 -19.5t7.5 -47.5q-8 -27 -34.5 -47.5t-55.5 -20.5t-45 20.5t-8 47.5z" />
<glyph unicode="&#xf7;" horiz-adv-x="870" d="M217 559l29 111h715l-29 -111h-715zM418 279l41 155h155l-41 -155h-155zM549 770l43 156h156l-43 -156h-156z" />
<glyph unicode="&#xf8;" horiz-adv-x="1050" d="M153 358.5q-1 71.5 19 147.5q29 111 93.5 207t148.5 167.5t183 113.5t198 42q102 0 180 -47t125 -127l-105 -74q-37 63 -97 99.5t-134 36.5q-78 0 -153.5 -33t-140 -89.5t-114 -133t-71.5 -162.5q-33 -119 -9 -213l-104 -74q-18 68 -19 139.5zM190 178l101 74 q37 -74 101.5 -117t150.5 -43q76 0 150.5 33t139 89t113.5 131t72 161q16 66 14 127t-20 117l106 73q27 -72 31 -151.5t-19 -165.5q-29 -109 -92 -204t-147 -167t-182.5 -113.5t-196.5 -41.5q-111 0 -194 53t-128 145z" />
<glyph unicode="&#xf9;" horiz-adv-x="921" d="M177 214q-3 21 -3 44q0 50 14 104l170 662h109l-172 -662q-9 -39 -9 -74q0 -15 2 -29q5 -48 27.5 -84t60.5 -57.5t89 -21.5q45 0 94 19.5t93 52.5t80 76t56 90l185 690h110l-272 -1024h-109l27 109q-66 -57 -142.5 -92t-154.5 -35q-72 0 -127 29.5t-87 81.5t-41 121z M555 1303h178l96 -201h-76z" />
<glyph unicode="&#xfa;" horiz-adv-x="921" d="M177 214q-3 21 -3 44q0 50 14 104l170 662h109l-172 -662q-9 -39 -9 -74q0 -15 2 -29q5 -48 27.5 -84t60.5 -57.5t89 -21.5q45 0 94 19.5t93 52.5t80 76t56 90l185 690h110l-272 -1024h-109l27 109q-66 -57 -142.5 -92t-154.5 -35q-72 0 -127 29.5t-87 81.5t-41 121z M669 1102l205 201h176l-303 -201h-78z" />
<glyph unicode="&#xfb;" horiz-adv-x="921" d="M177 214q-3 21 -3 44q0 50 14 104l170 662h109l-172 -662q-9 -39 -9 -74q0 -15 2 -29q5 -48 27.5 -84t60.5 -57.5t89 -21.5q45 0 94 19.5t93 52.5t80 76t56 90l185 690h110l-272 -1024h-109l27 109q-66 -57 -142.5 -92t-154.5 -35q-72 0 -127 29.5t-87 81.5t-41 121z M524 1145l297 231l172 -233l-90 -70l-119 166l-211 -166z" />
<glyph unicode="&#xfc;" horiz-adv-x="921" d="M177 214q-3 21 -3 44q0 50 14 104l170 662h109l-172 -662q-9 -39 -9 -74q0 -15 2 -29q5 -48 27.5 -84t60.5 -57.5t89 -21.5q45 0 94 19.5t93 52.5t80 76t56 90l185 690h110l-272 -1024h-109l27 109q-66 -57 -142.5 -92t-154.5 -35q-72 0 -127 29.5t-87 81.5t-41 121z M600 1309q8 29 34.5 48t55.5 19t45 -19.5t8 -47.5q-8 -27 -34.5 -47.5t-55.5 -20.5t-45 20.5t-8 47.5zM866 1309q8 29 34.5 48t55.5 19t45.5 -19.5t7.5 -47.5q-8 -27 -34.5 -47.5t-55.5 -20.5t-45 20.5t-8 47.5z" />
<glyph unicode="&#xfd;" horiz-adv-x="1095" d="M-4 -387l45 108q38 -13 77 -13q15 0 30 2q54 7 112.5 48t122 121t135.5 207l-70 475l-67 475h117l108 -815l270 407l271 408h121l-648 -958l2 2l-74 -117l-77 -117q-37 -59 -85 -104t-100.5 -77t-105.5 -48t-102 -16q-45 0 -82 12zM798 1102l205 201h176l-303 -201h-78z " />
<glyph unicode="&#xfe;" horiz-adv-x="1058" d="M10 -391l484 1798h112l-117 -434q63 31 138 49t161 18q102 -2 180.5 -44t126.5 -113.5t61 -166.5t-15 -202q-31 -111 -95.5 -208t-150.5 -168.5t-187.5 -113.5t-203.5 -42q-86 0 -148.5 21.5t-115.5 47.5l-119 -442h-111zM283 201q-8 -20 8 -39t51 -33t84 -23.5 t109 -11.5q78 2 155.5 35t145 90t118 132t72.5 161q23 82 12.5 157.5t-47.5 132t-96 90.5t-137 34q-109 0 -198 -29t-116 -68z" />
<glyph unicode="&#xff;" horiz-adv-x="1095" d="M-4 -387l45 108q38 -13 77 -13q15 0 30 2q54 7 112.5 48t122 121t135.5 207l-70 475l-67 475h117l108 -815l270 407l271 408h121l-648 -958l2 2l-74 -117l-77 -117q-37 -59 -85 -104t-100.5 -77t-105.5 -48t-102 -16q-45 0 -82 12zM709 1309q8 29 34.5 48t55.5 19 t45 -19.5t8 -47.5q-8 -27 -34.5 -47.5t-55.5 -20.5t-45 20.5t-8 47.5zM975 1309q8 29 34.5 48t55.5 19t45.5 -19.5t7.5 -47.5q-8 -27 -34.5 -47.5t-55.5 -20.5t-45 20.5t-8 47.5z" />
<glyph unicode="&#x152;" horiz-adv-x="2162" d="M219.5 420q-16.5 133 24.5 287q39 150 125 279.5t199.5 227t245.5 153.5t265 56q174 0 290 -78.5t163 -228.5l80 299h829l-31 -108h-716l-133 -498h612l-29 -113h-612l-158 -583h717l-27 -113h-829l76 293l-57 -59q-28 -28 -60 -54q-115 -96 -242 -147t-260 -51 q-129 0 -230.5 55t-163.5 152.5t-78.5 230.5zM335 468q11 -112 60 -195t133 -130t195 -47q106 0 210.5 44t196 120t164 177.5t113.5 215.5l29 105q23 119 5 218t-69 173q-49 78 -132 119t-191 41q-111 0 -219.5 -47.5t-201.5 -128t-165 -191.5t-105 -235q-34 -127 -23 -239z " />
<glyph unicode="&#x153;" horiz-adv-x="1802" d="M162 302q-12 95 16 204q29 111 93.5 207t148.5 167.5t183 113.5t198 42q137 0 229 -79.5t119 -204.5q43 61 95 113.5t109.5 91t117 60t118.5 21.5q86 0 149.5 -40t100.5 -109.5t43 -163.5t-22 -205l-17 -61h-704q-16 -78 -7 -144.5t37.5 -115.5t77.5 -78t113 -29 q31 0 73 9.5t85 22.5t83.5 28.5l69.5 27.5l17 -98q-66 -33 -149 -59.5t-157 -38.5q-12 -2 -25 -2h-28q-127 0 -208 78.5t-101 205.5q-47 -61 -104.5 -114.5t-123 -91t-135 -59t-139.5 -21.5q-98 0 -175 41.5t-123 113.5t-58 167zM274.5 345q8.5 -75 44 -131t94 -89 t136.5 -33q74 0 148.5 33t139 89t113.5 131t72 161t14.5 162.5t-43.5 133t-92 89.5t-131 33q-78 0 -153.5 -33t-141 -89.5t-115 -133t-71.5 -162.5q-23 -86 -14.5 -161zM1169 567h592q14 76 6 141.5t-35.5 113.5t-71.5 75t-101 27q-55 0 -111.5 -28t-108 -76t-95.5 -113.5 t-75 -139.5z" />
<glyph unicode="&#x178;" horiz-adv-x="1394" d="M428 1415h150l307 -667l336 333l338 334h147l-791 -778l-84 -319l-83 -318h-115l168 637l-188 389zM889 1520q8 29 34.5 48t55.5 19t45 -19.5t8 -47.5q-8 -27 -34.5 -47.5t-55.5 -20.5t-45 20.5t-8 47.5zM1155 1520q8 29 34.5 48t55.5 19t45.5 -19.5t7.5 -47.5 q-8 -27 -34.5 -47.5t-55.5 -20.5t-45 20.5t-8 47.5z" />
<glyph unicode="&#x2c6;" horiz-adv-x="548" d="M350 1145l297 231l172 -233l-90 -70l-119 166l-211 -166z" />
<glyph unicode="&#x2da;" horiz-adv-x="1705" />
<glyph unicode="&#x2dc;" horiz-adv-x="684" d="M436 1196l62 137q39 -70 96 -69q12 0 28.5 6l28.5 10q66 33 129 33q72 0 131 -47l-67 -144q-35 78 -92 78q-10 0 -30 -6l-32 -10q-29 -16 -62.5 -26.5t-62.5 -10.5q-74 0 -129 49z" />
<glyph unicode="&#x2000;" horiz-adv-x="882" />
<glyph unicode="&#x2001;" horiz-adv-x="1767" />
<glyph unicode="&#x2002;" horiz-adv-x="882" />
<glyph unicode="&#x2003;" horiz-adv-x="1767" />
<glyph unicode="&#x2004;" horiz-adv-x="587" />
<glyph unicode="&#x2005;" horiz-adv-x="440" />
<glyph unicode="&#x2006;" horiz-adv-x="292" />
<glyph unicode="&#x2007;" horiz-adv-x="292" />
<glyph unicode="&#x2008;" horiz-adv-x="219" />
<glyph unicode="&#x2009;" horiz-adv-x="352" />
<glyph unicode="&#x200a;" horiz-adv-x="96" />
<glyph unicode="&#x2010;" horiz-adv-x="862" d="M219 545l29 110h715l-29 -110h-715z" />
<glyph unicode="&#x2011;" horiz-adv-x="862" d="M219 545l29 110h715l-29 -110h-715z" />
<glyph unicode="&#x2012;" horiz-adv-x="862" d="M219 545l29 110h715l-29 -110h-715z" />
<glyph unicode="&#x2013;" horiz-adv-x="851" d="M219 545l29 110h715l-29 -110h-715z" />
<glyph unicode="&#x2014;" horiz-adv-x="1089" d="M221 545l29 110h942l-29 -110h-942z" />
<glyph unicode="&#x2018;" horiz-adv-x="307" d="M375 1196l155 211l31 -18l-59 -156l22 -121l-125 -51z" />
<glyph unicode="&#x2019;" horiz-adv-x="325" d="M352 1118l103 139l22 138l125 10l-20 -143l-209 -172z" />
<glyph unicode="&#x201a;" horiz-adv-x="352" d="M31 -111l116 129l35 138h125l-39 -148l-225 -153z" />
<glyph unicode="&#x201c;" horiz-adv-x="446" d="M395 1262l54 143l120 -10l-53 -138q6 -35 13.5 -70.5t15.5 -68.5l-35 -28zM541 1262l53 143l121 -10l-53 -138q6 -35 13 -70.5t15 -68.5l-35 -28z" />
<glyph unicode="&#x201d;" horiz-adv-x="485" d="M354 1118l103 139l20 138l125 10l-20 -143l-209 -172zM500 1118l102 139l21 138l125 10l-21 -143l-209 -172z" />
<glyph unicode="&#x201e;" horiz-adv-x="473" d="M12 -109l113 132l33 137h125l-39 -146l-217 -155zM160 -111l112 131l37 138h121l-39 -148l-221 -155z" />
<glyph unicode="&#x2022;" horiz-adv-x="428" d="M283 778q8 27 26.5 52.5t43 45t52 31t56.5 11.5q53 0 85 -42t15 -98q-6 -25 -24.5 -49t-43 -42.5t-52 -30t-54.5 -11.5q-55 0 -86.5 41t-17.5 92z" />
<glyph unicode="&#x2026;" horiz-adv-x="890" d="M78 0l39 156h155l-39 -156h-155zM367 0l39 156h155l-39 -156h-155zM655 0l39 156h156l-39 -156h-156z" />
<glyph unicode="&#x202f;" horiz-adv-x="352" />
<glyph unicode="&#x2039;" horiz-adv-x="720" d="M213 508l643 510l57 -78l-542 -432l156 -211l159 -211l-100 -82z" />
<glyph unicode="&#x203a;" horiz-adv-x="702" d="M100 86l543 422l-158 216l-157 216l104 78l367 -510l-641 -504z" />
<glyph unicode="&#x205f;" horiz-adv-x="440" />
<glyph unicode="&#x20ac;" horiz-adv-x="1525" d="M215 520l29 113h200q2 4 1 11t1 11l5 22q2 11 4 17l16 51q8 25 16 46v4h-200l30 112h224q61 111 148 204t189.5 160.5t214 104.5t224.5 37q150 0 261.5 -65.5t182.5 -169.5l-102 -82q-61 94 -152.5 148t-220.5 54q-90 0 -179 -28.5t-171 -80.5t-153.5 -124t-123.5 -158 h676l-30 -112h-703q-10 -23 -18.5 -47.5t-16.5 -53.5l-4 -16q-2 -8 -2 -19q-4 -10 -3 -13t-3 -13h707l-29 -113h-682q2 -90 32.5 -168t85 -134t130 -89t166.5 -33q129 0 249.5 56.5t233.5 154.5l55 -90q-127 -104 -273.5 -169.5t-295.5 -65.5q-119 0 -214 39.5t-161.5 112.5 t-99.5 171t-29 215h-215z" />
<glyph unicode="&#x2122;" horiz-adv-x="854" d="M399 1303l23 86h328l-23 -86h-117l-92 -347h-92l92 347h-119zM643 956l115 433h73l58 -175l45 55l47 54q12 16 29.5 33.5t27.5 32.5h72l-115 -433h-88l64 238l-57 -66q-26 -31 -35 -41h-50l-32 107l-64 -238h-90z" />
<glyph unicode="&#xe000;" horiz-adv-x="1025" d="M0 1025h1025v-1025h-1025v1025z" />
<glyph unicode="&#xfb01;" horiz-adv-x="1034" d="M217 0l236 889h-150l31 112h147q0 6 4 23q2 8 4 14l9 25q20 72 62 135.5t96.5 111.5t116 75.5t120.5 27.5q29 0 53.5 -1t61.5 -5l-64 -113q-25 6 -44 7.5t-36 1.5q-41 -2 -83 -22.5t-76.5 -56.5t-62.5 -83t-42 -101l-10 -39h260l-266 -1001h-109l236 889h-152l-119 -445 l-116 -444h-107z" />
<glyph unicode="&#xfb02;" horiz-adv-x="1003" d="M217 0l236 889h-150l31 112h147l6 37l9 25q23 74 64.5 136.5t96 109.5t114.5 74.5t122 29.5h111l-375 -1413h-115l236 889h-191l-119 -445l-116 -444h-107zM590 1001h190l80 302q-41 -4 -81 -25t-75.5 -56.5t-62.5 -81.5t-41 -100zM860 1303h4h10l-10 14z" />
<glyph unicode="&#xfb03;" horiz-adv-x="1691" d="M1460 0l270 1024h109l-271 -1024h-108zM1792 1309q8 29 33.5 48t56.5 19q29 0 45 -19q11 -13 11 -30q0 -9 -3 -18q-8 -27 -35 -47.5t-55 -20.5q-31 0 -46 21q-10 13 -10 29q0 9 3 18zM885 0l88 332l39 143l40 148l38 141l35 125h-150l31 112h147q0 6 4 23q2 8 4 14l9 25 q20 72 62 135.5t96.5 111.5t116 75.5t120.5 27.5q29 0 53.5 -1t61.5 -5l-64 -113q-25 6 -44 7.5t-36 1.5q-41 -2 -83 -22.5t-76.5 -56.5t-62.5 -83t-42 -101l-10 -39h262l-31 -112h-262l-119 -445l-116 -444h-111zM213 0l88 332l39 143l40 148l38 141l35 125h-150l31 112 h147q0 6 4 23q2 8 4 14l9 25q20 72 62 135.5t96.5 111.5t116 75.5t120.5 27.5q29 0 53.5 -1t61.5 -5l-64 -113q-25 6 -44 7.5t-36 1.5q-41 -2 -83 -22.5t-76.5 -56.5t-62.5 -83t-42 -101l-10 -39h262l-31 -112h-262l-119 -445l-116 -444h-111z" />
<glyph unicode="&#xfb04;" horiz-adv-x="1675" d="M1464 0l407 1534h111l-408 -1534h-110zM885 0l88 332l39 143l40 148l38 141l35 125h-150l31 112h147q0 6 4 23q2 8 4 14l9 25q20 72 62 135.5t96.5 111.5t116 75.5t120.5 27.5q29 0 53.5 -1t61.5 -5l-64 -113q-25 6 -44 7.5t-36 1.5q-41 -2 -83 -22.5t-76.5 -56.5 t-62.5 -83t-42 -101l-10 -39h262l-31 -112h-262l-119 -445l-116 -444h-111zM213 0l88 332l39 143l40 148l38 141l35 125h-150l31 112h147q0 6 4 23q2 8 4 14l9 25q20 72 62 135.5t96.5 111.5t116 75.5t120.5 27.5q29 0 53.5 -1t61.5 -5l-64 -113q-25 6 -44 7.5t-36 1.5 q-41 -2 -83 -22.5t-76.5 -56.5t-62.5 -83t-42 -101l-10 -39h262l-31 -112h-262l-119 -445l-116 -444h-111z" />
</font>
</defs>
</svg>
