<?xml version="1.0" standalone="no"?>
<!DOCTYPE svg PUBLIC "-//W3C//DTD SVG 1.1//EN" "http://www.w3.org/Graphics/SVG/1.1/DTD/svg11.dtd" >
<svg xmlns="http://www.w3.org/2000/svg">
<metadata>
This is a custom SVG webfont generated by Font Squirrel.
Copyright   : Copyright c 2007 by La Tipomatika All rights reserved
Designer    : La Tipomatika Digital Type Foundry
Foundry     : La Tipomatika
Foundry URL : httptipomatikaconr
</metadata>
<defs>
<font id="webfontUOaqSBvK" horiz-adv-x="1220" >
<font-face units-per-em="2048" ascent="1638" descent="-410" />
<missing-glyph horiz-adv-x="526" />
<glyph unicode=" "  horiz-adv-x="526" />
<glyph unicode="&#x09;" horiz-adv-x="526" />
<glyph unicode="&#xa0;" horiz-adv-x="526" />
<glyph unicode="!" horiz-adv-x="360" d="M123 31q4 20 22.5 33.5t38.5 13.5q23 0 31 -13.5t4 -33.5q-6 -20 -23.5 -34.5t-37.5 -14.5t-30.5 14.5t-4.5 34.5zM180 203l326 1212h74l-326 -1212h-74z" />
<glyph unicode="&#x22;" horiz-adv-x="444" d="M399 1135l54 280h98l-21 -129l-122 -164zM553 1135l53 280h99l-21 -129l-123 -164z" />
<glyph unicode="#" horiz-adv-x="1462" d="M160 0l284 453h-258l99 90h217l184 293h-397l96 90h358l250 393h92l-247 -393h491l250 393h92l-248 -393h238l-96 -90h-199l-186 -293h381l-99 -90h-340l-282 -453h-95l285 453h-493l-283 -453h-94zM594 543h493l185 293h-492z" />
<glyph unicode="$" horiz-adv-x="954" d="M119 174l86 55q25 -63 87 -112t157 -49l159 594q-76 14 -132 48.5t-90 86t-44 114t8 131.5q18 74 62.5 136.5t106 111.5t136 82t156.5 45l25 92h86l-25 -88q113 0 190.5 -43t124.5 -114l-84 -56q-35 59 -99 96t-152 37l-162 -606q74 -16 132 -51t94 -85t47 -112.5 t-7 -132.5q-18 -72 -64.5 -135t-109 -112.5t-138 -81t-155.5 -39.5l-33 -121h-86l31 117q-8 2 -23 2q-104 10 -177.5 62t-106.5 128zM442 1051q-29 -106 24.5 -190.5t166.5 -110.5l155 585q-59 -10 -114.5 -36.5t-102.5 -64.5t-81 -85t-48 -98zM537 72q57 8 114.5 31.5 t104.5 59.5t81.5 83t49.5 102q14 55 7 104.5t-32.5 90.5t-68.5 68.5t-101 39.5z" />
<glyph unicode="%" horiz-adv-x="1583" d="M346 2l1196 1413h103l-1201 -1413h-98zM365.5 904.5q-7.5 62.5 11.5 131.5q18 70 59 132.5t94.5 108.5t117 72.5t126.5 26.5q61 0 109.5 -26.5t76 -72.5t33.5 -108.5t-12 -132.5t-58 -132t-92.5 -108t-115 -73t-123.5 -27q-63 0 -111.5 27t-78 73t-37 108.5zM454 939 q5 -46 25.5 -81t55 -55.5t79.5 -20.5q43 0 87 20.5t82 55.5t68 81t44 97q14 53 9 100.5t-24.5 81t-53 53t-76.5 19.5q-45 0 -90.5 -19.5t-84 -53t-68.5 -80.5t-44 -101q-14 -51 -9 -97zM970 214q-7 62 11 132t58 132.5t93.5 107.5t115 71.5t122.5 26.5q63 0 111.5 -26.5 t77 -71.5t37 -107.5t-10.5 -132.5q-18 -70 -59 -132t-95.5 -108.5t-117 -73t-125.5 -26.5q-61 0 -108.5 26.5t-75 73t-34.5 108.5zM1057 247q4 -46 24.5 -81t54 -54.5t76.5 -19.5q45 0 90.5 19.5t84 54.5t68.5 81t44 99q29 109 -15 181.5t-136 72.5q-43 0 -87 -19.5t-82 -53 t-68 -81t-44 -100.5t-10 -99z" />
<glyph unicode="&#x26;" horiz-adv-x="1222" d="M179.5 237.5q-13.5 69.5 6.5 147.5q31 117 136.5 218.5t291.5 176.5l60 25l-27 43q-37 55 -55.5 97t-26.5 76t-5 62.5t9 55.5q14 53 51 104t89.5 91t118 64.5t139.5 24.5q66 0 114.5 -21.5t78.5 -58t38 -86t-6 -104.5q-23 -90 -92.5 -169t-220.5 -159l-74 -39l219 -399 l51 53q35 35 74 78t61 92l66 -14q-45 -78 -107 -147l-110 -121q14 -37 26 -62l23 -46l21 -45l28 -56l-31 -119l-32 48q-12 17 -24 36l-26 41l-38 63l-23 37l-43 -43q-98 -98 -210 -141t-222 -41q-92 0 -162 30.5t-111.5 84t-55 123zM264 268.5q12 -55.5 47 -98.5t90.5 -69.5 t124.5 -26.5q92 -2 198.5 48t190.5 130l33 31l-246 462q-203 -92 -307 -182t-129 -182q-14 -57 -2 -112.5zM652.5 1050q9.5 -42 37.5 -85l70 -115l51 24q63 31 114.5 68t90.5 75t62.5 73.5t29.5 60.5q25 90 -22.5 146.5t-141.5 56.5q-43 0 -89 -17.5t-87 -47t-71.5 -68.5 t-43.5 -82q-10 -47 -0.5 -89z" />
<glyph unicode="'" horiz-adv-x="247" d="M348 1139l103 137l20 129l102 10l-20 -129l-195 -160z" />
<glyph unicode="(" horiz-adv-x="532" d="M182 73.5q-2 110.5 14.5 241.5t55.5 277q37 137 88 264t110.5 235.5t124 193.5t130.5 138l12 -100q-51 -47 -103.5 -122t-99.5 -170t-89 -206.5t-75 -232.5q-37 -133 -54 -254t-18.5 -221.5t15 -175t49.5 -115.5l-76 -86q-39 51 -60.5 137t-23.5 196.5z" />
<glyph unicode=")" horiz-adv-x="503" d="M72 -174q55 41 110.5 115.5t108.5 175t99 221.5t83 254q33 121 50.5 232.5t20.5 206.5t-8.5 170t-35.5 122l65 100q35 -53 54.5 -138t20.5 -193.5t-15.5 -235.5t-53.5 -264q-39 -145 -92 -276.5t-115.5 -242t-130 -196.5t-135.5 -137z" />
<glyph unicode="*" horiz-adv-x="964" d="M428 1106l23 84h247l-129 176l76 61l129 -176l68 250h86l-68 -250l223 176l45 -59l-223 -176h250l-22 -86h-250l129 -178l-76 -60l-131 176l-68 -249h-86l68 247l-223 -174l-45 60l223 178h-246z" />
<glyph unicode="+" horiz-adv-x="925" d="M262 559l23 86h309l82 309h86l-82 -309h311l-22 -86h-312l-84 -311h-86l84 311h-309z" />
<glyph unicode="," horiz-adv-x="354" d="M43 -129l117 129l33 131h98l-33 -131l-209 -141z" />
<glyph unicode="-" horiz-adv-x="862" d="M233 559l23 86h707l-23 -86h-707z" />
<glyph unicode="." horiz-adv-x="296" d="M88 0l33 131h131l-33 -131h-131z" />
<glyph unicode="/" horiz-adv-x="774" d="M92 0l895 1415h92l-893 -1415h-94z" />
<glyph unicode="0" horiz-adv-x="1200" d="M239.5 424q-6.5 131 34.5 281q39 150 116 280.5t174.5 228t207 153.5t215.5 56t186 -56t123 -153.5t48.5 -228.5t-33.5 -280q-41 -150 -116 -281t-172 -229.5t-206.5 -155.5t-216.5 -57q-106 0 -185 57t-124 155.5t-51.5 229.5zM327 455.5q3 -115.5 38.5 -201.5t101 -136 t156.5 -50q90 0 182 50t174 136t146.5 201.5t101.5 249.5q35 131 31.5 246.5t-39 201.5t-101 135t-155.5 49t-182.5 -49t-174.5 -135t-146.5 -201.5t-99.5 -246.5q-36 -134 -33 -249.5z" />
<glyph unicode="1" horiz-adv-x="626" d="M356 1036l29 109l399 270h86l-376 -1415h-86l346 1305z" />
<glyph unicode="2" horiz-adv-x="972" d="M86 0l20 84l773 666q55 47 95 106t58 127q20 74 9 139.5t-47 112.5t-94 74.5t-134 27.5q-74 0 -146.5 -27.5t-132.5 -74.5l-45 61q78 59 167 93t182 34q92 0 163.5 -34.5t115.5 -94t57.5 -139.5t-11.5 -172q-23 -86 -73 -160.5t-121 -134.5l-701 -604h715l-21 -84h-792 h-37z" />
<glyph unicode="3" horiz-adv-x="882" d="M74 178l76 58q14 -31 40.5 -57.5t62.5 -48t76 -34t81 -12.5q70 0 138 21.5t124.5 60.5t97.5 89t57 110q14 55 5 110t-40.5 99t-82 73t-115.5 33h-115l25 86h51q20 0 37.5 1t21.5 1q66 4 128.5 23.5t114.5 54.5t90 82t54 106q16 63 5 118.5t-46.5 96.5t-91 64.5 t-125.5 23.5q-82 0 -143 -25.5t-121 -78.5l-45 61q76 63 155 95t177 32q88 0 157.5 -30.5t113.5 -83t58.5 -123t-5.5 -150.5q-29 -111 -114 -185.5t-200 -121.5q45 -25 78 -63.5t51.5 -88t21.5 -103.5t-12 -107q-20 -76 -72 -142.5t-124 -117t-158 -79t-174 -28.5 q-49 0 -98 14.5t-91 39t-74 57t-50 69.5z" />
<glyph unicode="4" horiz-adv-x="968" d="M219 518l23 82v2h2l686 813l61 -43l-649 -770h477l84 318h84l-84 -318h146l-23 -84h-145l-138 -518h-84l138 518h-578z" />
<glyph unicode="5" horiz-adv-x="1032" d="M199 201l75 59q27 -80 92.5 -127t161.5 -47q76 0 153 33t141.5 90t113.5 135t74 166t23.5 165t-28 133t-77.5 89t-127 33q-53 0 -107.5 -15.5t-105.5 -43t-97.5 -65.5t-78.5 -85h-86l235 694h723l-24 -86h-637l-172 -459q78 66 177 105t195 39q94 0 160 -40t100.5 -107.5 t37.5 -160t-25 -196.5q-29 -104 -88.5 -197.5t-138 -163t-173 -109.5t-188.5 -40q-111 0 -192.5 54.5t-116.5 146.5z" />
<glyph unicode="6" horiz-adv-x="1036" d="M219 230.5q-14 74.5 4 160.5v6q14 80 37 165l43 163q25 90 53.5 173t63.5 161q37 76 92 141.5t124 114.5t146.5 78.5t157.5 31.5q111 0 194 -46t126 -132l-101 -53q-31 66 -93 105.5t-146 39.5q-63 0 -127 -23.5t-122.5 -64.5t-105.5 -97t-76 -122q-35 -76 -63.5 -158.5 t-52.5 -173.5l-7.5 -30.5l-7.5 -30.5q76 86 179.5 138t214.5 57q88 0 158.5 -31t116.5 -85t61.5 -129t-7.5 -165q-4 -12 -4 -18q-25 -90 -79 -167t-127.5 -134.5t-160.5 -89t-175 -31.5q-86 0 -153 31.5t-108 86t-55 129zM302 269.5q11 -60.5 46 -105.5t89.5 -71.5 t123.5 -26.5q70 0 139.5 26.5t128 72.5t101.5 106.5t61 129.5q4 12 4 19q16 70 5 130t-44.5 104t-89 70t-125.5 26q-72 0 -141.5 -29t-127.5 -77t-101 -111.5t-62 -133.5q-18 -69 -7 -129.5z" />
<glyph unicode="7" horiz-adv-x="907" d="M92 0l971 1329h-625l25 86h768l-1036 -1415h-103z" />
<glyph unicode="8" horiz-adv-x="940" d="M159.5 232.5q-12.5 74.5 10.5 158.5q33 125 124 223.5t204 149.5q-70 45 -99.5 126t-3.5 179q20 74 66.5 138.5t109 112.5t136 75.5t147.5 27.5q78 0 137.5 -27.5t96 -75.5t48 -112.5t-9.5 -138.5q-27 -98 -98.5 -179t-169.5 -126q94 -51 130 -149.5t3 -223.5 q-23 -84 -75 -158.5t-122.5 -130t-155.5 -88t-171 -32.5q-84 0 -149.5 32.5t-105.5 88t-52.5 130zM248 267.5q10 -58.5 42 -103.5t83 -70.5t116 -25.5q68 0 135.5 25.5t124 70.5t97.5 103.5t59 123.5q18 68 8 127.5t-41.5 104.5t-85 70.5t-120.5 25.5q-66 0 -131.5 -25.5 t-122 -70.5t-97.5 -104.5t-59 -127.5q-18 -65 -8 -123.5zM476 966q9 -48 37 -84t73 -57.5t102 -21.5t114.5 21.5t104.5 57.5t82 84t49 103t6 104.5t-36.5 86t-74.5 57t-104 20.5q-57 0 -112 -20.5t-102.5 -57t-83 -86t-50.5 -104.5q-14 -55 -5 -103z" />
<glyph unicode="9" horiz-adv-x="1001" d="M164 154l100 67q31 -70 93.5 -108.5t142.5 -38.5q68 0 133 22.5t122.5 62.5t104.5 95t78 119q31 76 59.5 156.5t51.5 166.5l8 34q4 17 10 36q-80 -86 -188.5 -136t-225.5 -50q-84 0 -151.5 31.5t-109.5 86t-57.5 128t5.5 159.5q4 8 4 14q25 88 79 165t127 135.5t160 92 t175 33.5t156.5 -32.5t111.5 -88t56.5 -130t-5.5 -160.5l-2 -6q-16 -84 -40 -172l-46 -172q-23 -82 -48.5 -161t-59.5 -153q-37 -80 -96.5 -147.5t-131 -115.5t-153.5 -74.5t-164 -26.5q-102 0 -180 47t-119 121zM422 862.5q12 -59.5 46 -103.5t87 -69.5t121 -25.5 q74 0 144.5 26.5t130 72.5t103.5 108.5t62 134.5q18 68 6 128t-47 105t-90 71.5t-123 26.5q-74 0 -144.5 -28.5t-130 -75.5t-102.5 -110.5t-61 -133.5q-14 -67 -2 -126.5z" />
<glyph unicode=":" horiz-adv-x="372" d="M125 0l33 131h131l-33 -131h-131zM360 893l35 131h131l-34 -131h-132z" />
<glyph unicode=";" horiz-adv-x="346" d="M20 -129l117 129l33 131h98l-32 -131l-209 -141zM360 893l35 131h131l-34 -131h-132z" />
<glyph unicode="&#x3c;" horiz-adv-x="675" d="M193 508l632 504l47 -60l-559 -444l324 -434l-78 -64z" />
<glyph unicode="=" horiz-adv-x="901" d="M250 410l24 90h687l-25 -90h-686zM356 807l25 90h686l-25 -90h-686z" />
<glyph unicode="&#x3e;" horiz-adv-x="688" d="M96 74l557 434l-321 444l80 60l362 -504l-633 -498z" />
<glyph unicode="?" horiz-adv-x="839" d="M369 -197q6 25 26.5 39.5t42.5 14.5q51 0 39 -54q-8 -25 -26.5 -42t-42.5 -17q-23 0 -35 17t-4 42zM373 657l20 84h193q61 2 119.5 26t107.5 63.5t85 93t52 112.5q16 63 8 118.5t-35.5 96.5t-74.5 64.5t-107 23.5q-80 0 -155.5 -41t-132.5 -106l-43 59q72 78 165 125 t189 47q78 0 137.5 -30.5t96 -83t47 -123t-10.5 -150.5q-20 -76 -67 -144.5t-110.5 -120.5t-139.5 -83t-152 -31h-108l18 -657h-90z" />
<glyph unicode="@" horiz-adv-x="1636" d="M222.5 220q-21.5 130 19.5 278q39 150 130 279.5t214 226t267 152.5t292 56q147 0 256.5 -52t176.5 -141t86 -206t-13 -246q-25 -92 -66 -171t-82 -138q-47 -68 -98 -125q-43 -43 -91 -68.5t-93 -25.5q-41 0 -69 16.5t-46.5 43t-29.5 57t-15 59.5q-18 -6 -52 -15.5 t-74 -18.5l-79 -17q-39 -8 -65 -10q-37 -4 -80 7t-75 43t-45 86t9 138q12 51 39 107q45 98 102.5 161.5t120 101.5t126 52t122.5 14q37 0 84 -2t88 -4q49 -4 96 -6l-100 -207l-63 -133l-33 -75l-13 -31q-25 -88 -19.5 -150.5t32 -94.5t70.5 -28t100 49v2q41 47 78 107 q33 51 66.5 119.5t55.5 152.5q29 111 15.5 212.5t-68.5 179t-150.5 123.5t-226.5 46q-129 0 -256 -49t-234.5 -134t-187 -199.5t-114.5 -243.5t-16.5 -243t81 -198t162.5 -133t229 -49q37 0 82 5t99 22l-23 -95q-90 -23 -182 -22q-147 0 -262 56.5t-185.5 152.5t-92 226z M702.5 350q4.5 -35 18.5 -56.5t35.5 -31.5t44.5 -10q55 -2 116.5 9t96.5 26l110 235l115 236q-23 2 -66 2t-106 2q-88 2 -171 -46t-148 -188q-14 -27 -22.5 -49t-12.5 -43q-15 -51 -10.5 -86z" />
<glyph unicode="A" d="M66 0l899 1415h71l146 -1415h-90l-66 588h-498l-372 -588h-90zM584 674h436l-62 590z" />
<glyph unicode="B" horiz-adv-x="1048" d="M111 0l376 1415h86h367q76 -2 136.5 -30.5t99 -75.5t51.5 -110q5 -25 5 -51q0 -39 -11 -81q-29 -104 -106 -187t-181 -130q94 -45 131 -140q20 -51 20 -109q0 -48 -14 -100q-23 -80 -72 -151.5t-118.5 -125.5t-151.5 -86t-168 -34l-35 -4h-415zM217 86h330h37 q68 2 132 28.5t118.5 69.5t94.5 98.5t56 118.5q10 38 10 73q0 22 -4 43q-10 54 -41.5 96t-83 68t-116.5 30h-367zM408 797h366q61 2 119.5 23.5t107 57t84 85t50.5 104.5q8 30 8 58q0 20 -4 40q-10 47 -39 84t-76 58.5t-106 25.5h-37h-330z" />
<glyph unicode="C" horiz-adv-x="1208" d="M225 425q-6 41 -5 84q0 95 28 198q39 143 124 273t198.5 228.5t245.5 156.5t267 58q127 0 226.5 -52t158.5 -144l-73 -64v6q-53 78 -139.5 123t-196.5 45q-115 0 -228.5 -49t-212 -135t-173 -200.5t-109.5 -245.5q-26 -97 -26 -188q0 -29 2 -57q11 -116 61.5 -203 t138.5 -138t209 -51q111 0 216 44t204 122l43 -58q-111 -92 -236 -144t-252 -52t-227 57t-163 155.5t-81 230.5z" />
<glyph unicode="D" horiz-adv-x="1177" d="M78 0l377 1415h86h436q102 -2 177 -57t116 -150.5t45 -223.5v-24q0 -117 -35 -249q-39 -145 -110.5 -273.5t-163 -223.5t-195.5 -151.5t-209 -58.5l2 -4h-526zM184 86h441v4q84 2 171 52.5t163.5 134t138 195.5t96.5 239q32 121 32 230q0 117 -34 204q-33 84 -93.5 133 t-146.5 51h-436z" />
<glyph unicode="E" horiz-adv-x="993" d="M92 0l377 1415h817l-22 -82h-732l-143 -536h625l-25 -86h-624l-166 -625h731l-21 -86h-817z" />
<glyph unicode="F" horiz-adv-x="997" d="M100 0l377 1415h817l-22 -80h-731l-144 -538h625l-25 -86h-624l-187 -711h-86z" />
<glyph unicode="G" horiz-adv-x="1236" d="M213 422q-5 37 -5 76q0 97 30 202q39 150 126 281t201.5 229.5t247.5 155.5t266 57q129 0 226.5 -52t160.5 -144l-73 -60q-53 78 -140.5 123t-197.5 45q-117 0 -231.5 -49t-214 -135t-175.5 -201.5t-110 -249.5q-25 -95 -26 -181q0 -33 4 -65q13 -116 66.5 -203 t141.5 -137.5t205 -50.5q102 0 203.5 40t189.5 106l109 405h-392l23 82h477l-139 -516l-2 -6q-113 -92 -238 -142t-254 -50q-133 0 -236.5 56t-165 154.5t-77.5 229.5z" />
<glyph unicode="H" horiz-adv-x="1142" d="M102 0l377 1415h86l-166 -618h781l166 618h86l-377 -1415h-86l186 711h-780l-187 -711h-86z" />
<glyph unicode="I" horiz-adv-x="282" d="M102 0l377 1415h86l-377 -1415h-86z" />
<glyph unicode="J" horiz-adv-x="624" d="M86 68l72 59q16 -27 40.5 -43t53.5 -16q37 0 73.5 20.5t70.5 56t61.5 86t44.5 109.5l289 1075h88l-287 -1071q-20 -74 -59 -139.5t-89.5 -115.5t-105.5 -78.5t-109 -28.5q-47 0 -82.5 23.5t-60.5 62.5z" />
<glyph unicode="K" horiz-adv-x="1193" d="M92 0l377 1415h86l-207 -770l866 770h117l-694 -614l473 -801h-111l-434 735l-254 -223l-133 -512h-86z" />
<glyph unicode="L" horiz-adv-x="927" d="M92 0l377 1415h86l-356 -1329h690l-21 -86h-776z" />
<glyph unicode="M" horiz-adv-x="1275" d="M72 0l377 1415h86l256 -790l671 790h88l-376 -1415h-89l332 1249l-635 -747h-53l-240 747l-331 -1249h-86z" />
<glyph unicode="N" horiz-adv-x="1099" d="M98 0l377 1415h84l399 -1243l334 1243h86l-377 -1415h-86l-401 1249l-332 -1249h-84z" />
<glyph unicode="O" horiz-adv-x="1413" d="M223 420q-5 38 -4 78q0 99 29 209q39 150 125 279.5t199.5 227t245.5 153.5t265 56q137 0 240.5 -56t163 -152.5t73.5 -227.5q3 -33 3 -68q0 -101 -29 -212q-43 -160 -130 -294t-208 -233q-115 -96 -242 -147t-258 -51q-129 0 -230 55t-164 152.5t-79 230.5zM312 458 q11 -116 63.5 -202t140.5 -136t205 -50q119 0 235.5 50t215 136t172 201.5t108.5 249.5q26 96 26 182q0 38 -5 75q-16 118 -76 203q-51 80 -138.5 124t-199.5 44q-115 0 -229.5 -49t-212 -134t-172 -199.5t-109.5 -245.5q-26 -101 -26 -192q-1 -29 2 -57z" />
<glyph unicode="P" horiz-adv-x="983" d="M111 0l376 1415h408q82 0 147.5 -27.5t107.5 -74.5t55 -111q6 -27 6 -55q0 -39 -11 -80q-20 -76 -68.5 -141.5t-116 -113.5t-148.5 -75.5t-162 -27.5h-322l-186 -709h-86zM406 795h321q63 0 125.5 20.5t115 57t90.5 86t54 108.5q8 31 8 60q0 23 -5 43q-11 48 -44 84 t-84 57.5t-115 21.5h-6h-315z" />
<glyph unicode="Q" horiz-adv-x="1361" d="M256 494q-5 37 -5 76q0 88 25 184q39 143 120 265t186.5 212t227.5 141t241 51q121 0 215 -51t151.5 -142t72.5 -213q5 -36 4 -74q0 -90 -26 -189q-39 -141 -123.5 -266.5t-195.5 -215.5q-86 -74 -182.5 -118.5t-194.5 -59.5q-4 -27 -4 -50q0 -33 8 -58q14 -43 49 -43 q23 0 42.5 13t33.5 34l45 -49q-35 -35 -70.5 -56.5t-70.5 -21.5q-63 0 -94 65q-22 47 -22 108q0 24 3 50q-119 2 -212 55.5t-150.5 142.5t-73.5 210zM334 526q12 -106 60 -186t129 -128t186 -50q1 9 1 17q0 26 -15 45q-18 24 -54 24h-6l20 74h7q67 0 102 -42q29 -34 29 -85 q0 -14 -2 -29q96 18 190 71.5t174 131t141.5 176t89.5 209.5q25 93 26 178q0 32 -4 63q-13 113 -71 195q-49 74 -125.5 117t-181.5 43q-104 0 -210.5 -46.5t-199 -127t-163 -189t-103.5 -233.5q-24 -88 -24 -169q1 -30 4 -59z" />
<glyph unicode="R" horiz-adv-x="970" d="M90 0l377 1415h405q84 0 149.5 -27.5t106.5 -74.5t56 -111q6 -28 6 -57q0 -38 -10 -80q-20 -74 -68.5 -138.5t-116 -112.5t-148.5 -75.5t-165 -27.5h-203l439 -711h-111l-440 711h-5l-186 -711h-86zM387 797h320q63 0 126.5 20.5t115.5 56t90 85t55 106.5q8 30 7 58 q0 24 -5 46q-12 49 -45 86t-85.5 58.5t-115.5 21.5h-4h-316z" />
<glyph unicode="S" horiz-adv-x="993" d="M137 174l86 55q29 -74 98.5 -117.5t178.5 -43.5q66 0 131 21.5t120.5 58t96.5 88t57 110.5q9 36 9 70q0 22 -4 42q-9 52 -38.5 94t-80 68.5t-113.5 34.5h-6q-86 8 -151.5 42t-105.5 86.5t-54 119.5q-5 27 -5 54q0 42 13 87q20 80 73.5 150t126 120t159.5 78.5t177 28.5 q117 0 198 -41t128 -116l-84 -56q-35 61 -102.5 97t-159.5 36q-68 0 -136.5 -22.5t-127 -61t-101.5 -91t-59 -113.5q-10 -35 -10 -69q0 -23 5 -45q11 -54 42.5 -96t85 -70t121.5 -34q82 -12 145 -46t103 -85t53 -116q5 -26 4 -54q0 -41 -11 -84q-20 -78 -72.5 -146.5 t-123 -118.5t-156.5 -78.5t-174 -28.5q-125 0 -212 53t-124 139z" />
<glyph unicode="T" horiz-adv-x="1177" d="M442 1333l23 82h549h461l-23 -82h-461l-354 -1333h-86l354 1333h-463z" />
<glyph unicode="U" horiz-adv-x="1224" d="M182 354l285 1061h92l-285 -1061q-4 -22 -4 -42q0 -36 14 -69q22 -52 70.5 -90t120.5 -60.5t160 -22.5q84 0 166 22.5t149.5 60t116.5 90t70 111.5l284 1061h86l-284 -1061q-25 -76 -84.5 -143.5t-142.5 -118.5t-183 -80.5t-203 -29.5q-106 0 -192 29.5t-143.5 80.5 t-83.5 119q-16 41 -15 85q0 28 6 58z" />
<glyph unicode="V" horiz-adv-x="1308" d="M467 1415h90l131 -1288l823 1288h91l-900 -1415h-90z" />
<glyph unicode="W" horiz-adv-x="1873" d="M473 1415h90l133 -1288l383 604l-67 684h90l55 -563l76 -725l821 1288h92l-897 -1415h-94l-63 604l-381 -604h-93z" />
<glyph unicode="X" horiz-adv-x="1107" d="M80 0l612 725l-217 690h96l203 -618l531 618h100l-604 -704l227 -711h-100l-209 639l-543 -639h-96z" />
<glyph unicode="Y" horiz-adv-x="1394" d="M451 1415h116l318 -692l698 692h115l-789 -774l-168 -641h-88l168 641z" />
<glyph unicode="Z" horiz-adv-x="1122" d="M72 0l1181 1329h-770l25 86h850h72l-1182 -1329h753l-20 -86h-850h-59z" />
<glyph unicode="[" horiz-adv-x="430" d="M242 96l133 496q10 41 -8.5 66.5t-57.5 25.5h-41l23 86h41q39 0 71.5 26.5t42.5 65.5l125 461v4l2 6q16 37 58.5 59.5t87.5 22.5l-25 -88q-35 0 -35 -4l-131 -485q-16 -27 -45.5 -47.5t-60.5 -20.5l-23 -86q31 0 50.5 -17.5t19.5 -48.5l-139 -522q0 -10 32 -10l-20 -86 q-18 0 -38.5 7t-36 19.5t-23.5 29.5t-2 40z" />
<glyph unicode="\" horiz-adv-x="759" d="M469 1415h92l141 -1415h-94z" />
<glyph unicode="]" horiz-adv-x="374" d="M59 0l21 86q16 0 27.5 3t15.5 7l139 522q16 31 43 48.5t57 17.5l27 86q-35 0 -51 20.5t-16 47.5l131 485q-6 4 -41 4l24 88q53 0 79 -23.5t22 -58.5l2 -6v-4l-125 -461q-10 -39 6 -65.5t53 -26.5h43l-22 -86h-43q-37 0 -68 -25.5t-41 -66.5l-133 -496q-6 -20 -21.5 -37.5 t-37 -31t-46.5 -20.5t-45 -7z" />
<glyph unicode="^" horiz-adv-x="1128" d="M309 918l637 497l363 -500l-80 -61l-316 440l-563 -440z" />
<glyph unicode="_" horiz-adv-x="1050" d="M86 0l20 86h861l-21 -86h-860z" />
<glyph unicode="`" horiz-adv-x="417" d="M414 1311h135l88 -178h-47z" />
<glyph unicode="a" horiz-adv-x="835" d="M130 171q-5 23 -5 47q0 35 10 71q18 63 59.5 120.5t97.5 100.5t122.5 67.5t134.5 24.5h246l12 43q2 8 6 21q13 50 13 96q0 7 -1 13q-2 52 -19.5 90t-50 61.5t-77.5 25.5h-2q-33 0 -55.5 -2t-43 -7t-41.5 -11l-49 -14v79l54.5 17.5t46 12.5t49.5 7t61 2h2 q61 -2 106.5 -29.5t72 -74.5t33.5 -110q2 -21 3 -42q0 -44 -10 -92l-6 -22l-90 -326l-33 -121l-30 -107l-21 -79q-8 -31 -8 -33h-82l20 84q-59 -47 -129.5 -74.5t-142.5 -27.5q-68 0 -121 24.5t-87 66.5t-45 98zM217 202q8 -40 33.5 -70t65.5 -47t90 -17q51 0 100 17t91 47 t72.5 71t43.5 88l59 223q-90 0 -139 1t-72 1h-27h-8q-49 0 -98 -18.5t-91 -49t-73 -71.5t-43 -88q-7 -28 -7 -54q0 -17 3 -33z" />
<glyph unicode="b" horiz-adv-x="1071" d="M125 0l51 193l328 1222h86l-123 -459q63 39 147 59.5t177 20.5q102 0 180 -42t125 -114.5t60 -167.5q4 -30 4 -62q0 -67 -19 -140q-29 -109 -93.5 -205t-149.5 -167.5t-186.5 -113.5t-203.5 -44q-94 4 -168 25.5t-119 55.5l-14 -61h-82zM244 145q35 -23 80 -39 q39 -16 91 -27t115 -13q84 2 167 37.5t155 95t125 140.5t78 171q17 60 17 117q0 26 -4 51q-11 80 -50 140.5t-103.5 96t-146.5 35.5q-59 0 -118.5 -12t-106.5 -29q-55 -18 -107 -39z" />
<glyph unicode="c" horiz-adv-x="978" d="M167 304q-4 30 -4 62q0 68 19 142q29 109 93.5 205t150.5 167.5t186.5 113.5t200.5 42q106 0 185 -44t124 -115l-78 -64q-35 61 -100 99t-153 38q-84 0 -167 -34.5t-154 -94t-124 -140.5t-78 -173q-17 -64 -17 -123q0 -25 3 -48q10 -81 48 -140.5t102.5 -94t148.5 -34.5 t167 34.5t154 96.5l48 -60q-90 -72 -189.5 -114.5t-202.5 -42.5q-100 0 -178 42t-125 113.5t-60 166.5z" />
<glyph unicode="d" horiz-adv-x="1030" d="M161 305q-4 31 -4 63q0 69 19 144q29 109 93.5 203t150.5 164.5t187.5 112.5t203.5 42h4h-4q92 0 164 -19.5t119 -60.5l125 461h86l-330 -1225l-49 -190h-86l14 59q-61 -35 -146 -55t-180 -24q-102 2 -180 44t-126 113.5t-61 167.5zM247 341q11 -81 50 -141.5t104.5 -97 t149.5 -39.5h4q66 0 125 12.5t104 28.5q53 18 95 41l192 725q-35 20 -80 39q-39 14 -91 26.5t-112 12.5q-86 -2 -169.5 -38t-155.5 -94t-125 -137t-78 -167q-17 -62 -17 -119q0 -27 4 -52z" />
<glyph unicode="e" horiz-adv-x="933" d="M174 280q-4 31 -4 64q0 61 14 127l11 39q29 109 87 205t132.5 167.5t159.5 113.5t169 42q86 0 149.5 -35.5t100.5 -101t44 -157.5l2 -37q0 -76 -23 -164l-15 -49h-722q-13 -60 -13 -115q0 -25 2 -48q8 -77 39 -135.5t83 -93t120 -34.5q43 0 89 7t90 19t82 28.5t67 33.5 l12 -80q-59 -37 -143 -59.5t-168 -32.5h-2q-12 -2 -26 -2h-28q-86 0 -151.5 37.5t-105.5 104.5t-52 156zM301 578h641q10 52 11 99q0 26 -4 51q-9 69 -38.5 118t-78 76.5t-111.5 27.5q-61 0 -123.5 -27.5t-119 -76.5t-102.5 -117.5t-75 -150.5z" />
<glyph unicode="f" horiz-adv-x="671" d="M233 0l91 340l38 148l40 152l38 144l35 129h-156l25 88h152l4 15q2 4 3 11t3 13q2 8 2 15l8 24q23 70 64 132.5t94 109.5t113.5 74.5t119.5 27.5h50q24 0 47 -4l-48 -84q-12 4 -32 4h-39q-47 -2 -92 -24.5t-84 -61.5t-70 -90t-47 -108l-12 -54h270l-25 -88h-270 l-242 -913h-80z" />
<glyph unicode="g" horiz-adv-x="1128" d="M46 -209q-8 29 -8 60q0 33 9 67q25 92 103.5 167t185.5 116q-6 18 -5 42.5t7 53.5q10 35 30.5 64.5t43.5 46.5q-57 51 -79 121q-11 35 -11 72q0 39 12 81q18 74 67.5 138.5t117 112.5t149.5 75.5t168 27.5q45 0 79.5 -6t67.5 -16h354l-106 -86h-129q59 -66 59 -158 q0 -41 -12 -88q-20 -74 -69.5 -137.5t-117 -110.5t-149.5 -74.5t-166 -27.5q-51 0 -88 12t-74 12q-23 0 -47 -11t-35 -44q-12 -43 8.5 -54t45.5 -11q18 0 37.5 3t48.5 3q86 0 154.5 -26t112.5 -69t60 -102q8 -28 8 -58q0 -33 -10 -69q-18 -68 -66 -127t-116 -103t-149.5 -71 t-167.5 -27q-84 0 -151.5 27t-111 71t-60.5 103zM129 -82q-7 -25 -7 -48.5t7 -45.5q14 -45 51 -79t91.5 -53.5t119.5 -19.5q70 0 135.5 19.5t119.5 53.5t91 79t51 94q6 24 6 46q0 24 -7 47q-13 44 -49 78t-91 54.5t-125 20.5q-66 0 -131 -20.5t-118.5 -54.5t-92.5 -78 t-51 -93zM415 578q13 -49 47 -85t87 -57.5t121 -21.5q70 0 134 21.5t118.5 57t92.5 85t54 104.5q8 32 8 62q0 23 -5 46q-11 50 -46 86.5t-89 57t-124 20.5q-68 0 -131.5 -20.5t-117.5 -57t-93 -87t-53 -107.5q-9 -31 -9 -59q0 -23 6 -45z" />
<glyph unicode="h" horiz-adv-x="931" d="M96 0l377 1419h86l-145 -540q72 76 154.5 117.5t172.5 41.5q72 0 127.5 -28.5t88 -79.5t40.5 -119q3 -21 3 -43q0 -49 -13 -102l-172 -660h-86l178 660q9 37 9 71q0 22 -4 42q-9 52 -35.5 91t-70.5 61.5t-99 22.5q-49 0 -100.5 -19.5t-97.5 -54t-83 -81.5t-59 -103 l-185 -696h-86z" />
<glyph unicode="i" horiz-adv-x="348" d="M131 0l270 1024h84l-270 -1024h-84zM469 1331q4 23 26.5 39t47.5 16q23 0 36 -16q10 -13 10 -29q0 -5 -1 -10q-6 -23 -29.5 -39t-46.5 -16q-25 0 -37 16q-8 11 -8 25q0 6 2 14z" />
<glyph unicode="j" horiz-adv-x="724" d="M0 -397l29 80l32 -5q14 -2 30 -2h26q45 2 91 26t84 61.5t67.5 88t46.5 105.5l286 1069h86l-293 -1089q-23 -70 -63.5 -131.5t-93 -107.5t-111.5 -73.5t-119 -30.5h-4q-27 0 -50.5 3.5t-43.5 5.5zM754 1321q8 25 27.5 40t45.5 15q20 0 33 -15q7 -9 8 -22q0 -8 -4 -18 q-6 -23 -26.5 -39t-40.5 -16q-27 0 -38 16q-7 11 -8 24q1 7 3 15z" />
<glyph unicode="k" horiz-adv-x="901" d="M125 0l51 190l46 171l68 252l92 346l122 456h86l-197 -731l496 340h131l-397 -270l231 -754h-100l-213 692l-179 -121l-149 -571h-88z" />
<glyph unicode="l" horiz-adv-x="331" d="M135 0l408 1536h86l-408 -1536h-86z" />
<glyph unicode="m" horiz-adv-x="1513" d="M86 0l244 924q4 16 9 34l9 33l8 33h86l-24 -96l-15 -54q70 76 154 118t170 42q109 0 175.5 -64.5t82.5 -162.5q37 61 84 105t97.5 72t100.5 41t93 13q72 0 126 -28.5t87 -78.5t42 -119q3 -23 3 -47q0 -48 -12 -99l-174 -662h-86l178 662q9 38 9 72q0 20 -3 39 q-8 52 -35 91t-69 61.5t-97 22.5q-51 0 -103 -20.5t-98.5 -55t-83 -80.5t-57.5 -100l-186 -692h-86l176 658q9 39 9 74q0 20 -3 39q-8 52 -33.5 90t-69.5 60.5t-100 22.5q-51 0 -102 -19.5t-96 -54t-82 -80.5t-60 -102l-182 -692h-86z" />
<glyph unicode="n" horiz-adv-x="886" d="M82 0l270 1024h86l-39 -145q72 78 157 119.5t173 41.5q72 0 126 -29.5t87 -79.5t42 -119q3 -23 3 -47q0 -48 -12 -99l-172 -666h-86l176 666q10 43 10 81q0 16 -2 32q-6 52 -29.5 91t-64.5 61.5t-96 22.5q-51 0 -105.5 -19.5t-103.5 -54t-88 -81.5t-62 -103l-184 -696 h-86z" />
<glyph unicode="o" horiz-adv-x="1050" d="M164 302q-4 29 -4 58q0 69 20 146q29 111 93.5 207t148.5 167.5t183.5 113.5t197.5 42t174 -42t121 -113.5t56 -167.5q3 -27 3 -56q0 -72 -20 -151q-29 -109 -92.5 -204t-147.5 -167t-181.5 -113.5t-195.5 -41.5t-175 41.5t-123 113.5t-58 167zM251 335q9 -81 47 -140.5 t100.5 -94t144.5 -34.5q80 0 159.5 34.5t148.5 94t121 140.5t77 171q18 67 17 128q0 23 -2 45q-9 81 -45 141.5t-97.5 95t-141.5 34.5q-82 0 -163.5 -34.5t-151.5 -95t-122 -141.5t-77 -173q-18 -66 -18 -126q0 -23 3 -45z" />
<glyph unicode="p" horiz-adv-x="1036" d="M-18 -399l378 1423h82l-18 -70q61 35 147 58.5t181 23.5q100 -2 179 -44t126 -112.5t60 -165.5q4 -30 4 -62q0 -67 -19 -140q-29 -111 -93.5 -207t-150.5 -167.5t-186.5 -113.5t-202.5 -42q-90 0 -165 22.5t-116 56.5l-125 -460h-81zM207 143q39 -20 84 -37 q39 -14 90 -26t111 -14q86 2 168.5 37.5t154.5 96t124 140.5t77 172q17 64 17 122q0 24 -3 48q-10 80 -49 139.5t-103.5 93t-148.5 33.5q-66 0 -123 -13t-104 -30q-53 -18 -101 -41z" />
<glyph unicode="q" horiz-adv-x="1054" d="M167 306q-4 30 -4 62q0 68 19 142q29 109 94.5 204t151.5 166.5t186.5 113.5t200.5 42q94 0 169 -20.5t120 -54.5l16 63h84l-381 -1423h-84l125 467q-70 -41 -153.5 -62.5t-178.5 -21.5h7h-7q-100 2 -178 44t-126 112.5t-61 165.5zM253 339q11 -79 51 -138.5t104.5 -94 t148.5 -36.5q59 0 118.5 11t106.5 25q53 16 105 39l192 725q-37 23 -80 41q-37 16 -88 28.5t-112 12.5h-6q-84 0 -167 -34.5t-155 -95t-126 -140.5t-79 -172q-17 -63 -17 -120q0 -26 4 -51z" />
<glyph unicode="r" horiz-adv-x="585" d="M94 0l271 1024h86l-39 -150q70 78 153.5 120t171.5 42q10 0 41 -3t41 -7l-35 -90q-32 12 -65 12q-26 0 -53 -7q-63 -15 -123 -54t-108 -91.5t-73 -103.5l-182 -692h-86z" />
<glyph unicode="s" horiz-adv-x="854" d="M137 117l78 51q33 -43 92.5 -71.5t136.5 -28.5q53 0 103.5 13t91.5 37.5t69.5 59.5t41.5 76q5 20 5 40q0 18 -4 35q-9 36 -35 66.5t-67 52t-92 29.5q-68 10 -120 39t-85 69t-44 89q-5 22 -5 44q0 29 8 58q14 57 55.5 105.5t97.5 82t122.5 52t136.5 18.5q96 0 171 -35.5 t114 -91.5l-82 -51q-35 45 -96.5 68.5t-137.5 23.5q-53 0 -101 -13t-87 -35.5t-66.5 -55.5t-38.5 -72q-6 -20 -5 -39q0 -51 39 -97q54 -62 161 -79q68 -10 119 -39t83.5 -68.5t43.5 -90.5q4 -21 4 -42q0 -31 -8 -63q-16 -61 -56.5 -110.5t-95.5 -85t-121.5 -55t-134.5 -19.5 q-96 0 -176 35t-115 98z" />
<glyph unicode="t" horiz-adv-x="696" d="M262 0l90 344l39 149l41 152l39 147l35 130h-156l25 88h151l109 405h86l-109 -405h277l-25 -88h-276l-244 -922h-82z" />
<glyph unicode="u" horiz-adv-x="921" d="M186 212q-3 21 -2 43q0 49 13 103l172 666h84l-174 -666q-10 -40 -10 -76q0 -18 2 -35q7 -52 32 -92t66 -62.5t96 -22.5q51 0 104.5 20.5t101.5 55t85 81.5t57 101l186 696h86l-247 -926l-25 -98h-84l35 143q-66 -72 -152 -116.5t-174 -44.5q-72 0 -126 29.5t-86 80.5 t-40 120z" />
<glyph unicode="v" horiz-adv-x="1024" d="M322 1024h92l125 -905l606 905h98l-688 -1024h-92z" />
<glyph unicode="w" horiz-adv-x="1443" d="M311 1024h92l125 -905l273 405l-68 500h98l119 -905l606 905h99l-688 -1024l-95 6l-51 400l-276 -406l-94 6z" />
<glyph unicode="x" horiz-adv-x="909" d="M68 0l462 530l-182 494h109l149 -422l381 422h107l-453 -510l182 -514h-102l-164 442l-387 -442h-102z" />
<glyph unicode="y" horiz-adv-x="980" d="M-47 -399l35 88q2 -4 5 -6t7 -7h2q10 0 22.5 -1t24.5 -1q72 0 154 48.5t143 140.5l139 209l-139 964h92l115 -864l571 864h93l-652 -964l-153 -240l-11 -18q-78 -109 -180 -166.5t-198 -57.5q-33 1 -70 11z" />
<glyph unicode="z" horiz-adv-x="925" d="M94 0l21 88l866 848h-633l23 88h745l-22 -88l-867 -848h639l-20 -88h-752z" />
<glyph unicode="{" horiz-adv-x="456" d="M242 96l133 496q10 41 -8.5 66.5t-57.5 25.5h-41l23 86h41q39 0 71.5 26.5t42.5 65.5l125 461v4l2 6q16 37 58.5 59.5t87.5 22.5l-25 -88q-35 0 -35 -4l-131 -485q-16 -27 -45.5 -47.5t-60.5 -20.5l-23 -86q31 0 50.5 -17.5t19.5 -48.5l-139 -522q0 -10 32 -10l-20 -86 q-18 0 -38.5 7t-36 19.5t-23.5 29.5t-2 40z" />
<glyph unicode="|" horiz-adv-x="268" d="M115 2l393 1466h53l-393 -1466h-53z" />
<glyph unicode="}" horiz-adv-x="385" d="M59 0l21 86q16 0 27.5 3t15.5 7l139 522q16 31 43 48.5t57 17.5l27 86q-35 0 -51 20.5t-16 47.5l131 485q-6 4 -41 4l24 88q53 0 79 -23.5t22 -58.5l2 -6v-4l-125 -461q-10 -39 6 -65.5t53 -26.5h43l-22 -86h-43q-37 0 -68 -25.5t-41 -66.5l-133 -496q-6 -20 -21.5 -37.5 t-37 -31t-46.5 -20.5t-45 -7z" />
<glyph unicode="~" horiz-adv-x="710" d="M303 612l45 105q23 -41 68 -52.5t92 15.5h2q66 37 132.5 34t111.5 -42l-47 -107v2q-20 43 -67.5 54.5t-94.5 -15.5h-2q-66 -37 -130.5 -34t-109.5 40z" />
<glyph unicode="&#xa1;" horiz-adv-x="327" d="M129 0l320 1204h73l-319 -1204h-74zM483 1374q6 20 23.5 34.5t38.5 14.5q20 0 30.5 -14t4.5 -35q-4 -20 -22.5 -33.5t-39.5 -13.5q-23 0 -31 13.5t-4 33.5z" />
<glyph unicode="&#xa2;" horiz-adv-x="978" d="M165 314.5q-11 91.5 17 193.5q27 102 86.5 193.5t139 162t172 114.5t188.5 54l37 139h96l-37 -139q86 -10 151.5 -52t106.5 -103l-78 -64q-31 53 -82 88t-122 45l-234 -876q70 10 138.5 42.5t129.5 86.5l48 -60q-78 -63 -164 -103t-174 -50l-39 -140h-96l38 140 q-90 8 -159.5 52t-110.5 114.5t-52 162zM253 348q7 -76 40 -134t88 -97t129 -47l233 876q-78 -10 -153.5 -47t-139 -95.5t-111.5 -134t-71 -161.5q-22 -84 -15 -160z" />
<glyph unicode="&#xa3;" horiz-adv-x="1138" d="M215 616l23 86h245l193 713h86l-193 -713h375l-22 -86h-375l-141 -530h690l-21 -86h-776l162 616h-246z" />
<glyph unicode="&#xa4;" horiz-adv-x="1705" />
<glyph unicode="&#xa5;" horiz-adv-x="1394" d="M432 303l25 90h299l20 78h-299l25 90h299l20 80l-370 774h116l318 -692l698 692h115l-789 -774l-20 -80h299l-25 -90h-299l-20 -78h299l-25 -90h-299l-78 -303h-88l78 303h-299z" />
<glyph unicode="&#xa6;" horiz-adv-x="268" d="M115 2l188 703h53l-188 -703h-53zM338 840l170 628h53l-170 -628h-53z" />
<glyph unicode="&#xa7;" horiz-adv-x="780" d="M119 68l143 186q51 -29 91 -42t73 -13q55 0 96 20h-10q-53 0 -116.5 19.5t-131.5 64.5l137 186q47 -27 90.5 -41t77.5 -14q-27 37 -67 64q-53 31 -91 74.5t-59.5 95t-25.5 106.5t10 111q31 117 133 202l8 29q18 74 61.5 131.5t99.5 97t123.5 60t135.5 20.5 q53 0 116.5 -19.5t137.5 -59.5l-143 -199q-109 61 -174 61q-23 0 -45.5 -5t-43.5 -13h7q53 0 118.5 -20.5t137.5 -57.5l-138 -201q-45 25 -80.5 39.5t-68.5 18.5q23 -25 57 -47q104 -59 147.5 -165t12.5 -218q-16 -59 -51 -111.5t-82 -95.5l-6 -25q-20 -78 -65.5 -138 t-105 -101t-127 -62.5t-130.5 -21.5q-55 0 -118.5 20.5t-133.5 63.5zM164 84q113 -70 215 -70q59 0 120.5 19.5t116 57.5t95.5 92.5t59 123.5q2 8 3 16.5t3 18.5q43 39 81 91t52 106q29 104 -13 200.5t-138 153.5q-35 23 -59.5 51.5t-36.5 59.5q10 2 36 2q78 0 166 -52 l101 142q-55 29 -111.5 45t-110.5 16q-41 0 -79 -6q25 43 73.5 66.5t104.5 23.5q72 0 164 -51l100 141q-59 33 -112.5 47.5t-104.5 14.5q-61 0 -122.5 -18.5t-113 -54.5t-89.5 -87t-56 -117q-4 -10 -6 -19.5t-4 -21.5q-100 -74 -133 -190q-27 -100 14 -200.5t141 -158.5l2 2 q78 -45 103 -118q-14 -4 -30.5 -6.5t-31.5 -2.5q-35 0 -77 13.5t-85 36.5l-96 -136q53 -35 107.5 -50t107.5 -15q23 0 42.5 1t41.5 7q-29 -47 -79 -69.5t-107 -22.5q-74 0 -156 47zM207 96l57 76q35 -20 71 -28.5t75 -8.5q41 0 79.5 11.5t72.5 33t58.5 53t36.5 74.5 q-35 -16 -66.5 -20t-62.5 -4q-49 0 -95 11t-85 36l58 80q74 -39 149 -39q57 0 107 20q-10 49 -40 93t-81 73q-94 51 -133 143.5t-15 184.5q33 113 135 178q0 29 9 53q14 57 49 103.5t81 78t101 48t113 16.5q94 0 182 -47l-59 -84q-37 23 -77 32t-77 9q-78 0 -143.5 -40 t-88.5 -118v-2q0 -2 -2 -4q57 18 119 18q98 0 187 -47l-58 -84q-74 41 -157 41q-45 0 -89 -14q10 -43 40 -86t81 -72q92 -53 130 -140t12 -185q-14 -53 -50 -101.5t-81 -83.5l-5 -24l-4 -23q-16 -61 -53 -110.5t-86 -82t-104.5 -50t-108.5 -17.5q-96 0 -182 49zM479 877 q-16 -66 14.5 -134.5t104.5 -111.5q59 -31 95 -80t46 -102q8 6 21 22q14 16 22.5 34.5t14.5 37.5q18 70 -12.5 139.5t-104.5 112.5q-57 29 -93 76t-48 100q-20 -16 -37 -42.5t-23 -51.5zM508 877q4 8 8 17t8 17q37 -94 138 -147v2q66 -39 94 -100.5t12 -122.5 q-6 -20 -14 -33q-39 94 -136 152v-3q-70 39 -98 99t-12 119zM535 819q8 -35 32.5 -69.5t71.5 -61.5h-2q33 -16 58.5 -38.5t43.5 -47.5q-4 37 -29.5 73t-68.5 60v-2q-35 16 -60.5 38.5t-45.5 47.5z" />
<glyph unicode="&#xa8;" horiz-adv-x="538" d="M434 1331q4 23 26.5 39t47.5 16q23 0 36 -16t9 -39q-6 -23 -29.5 -39t-46.5 -16q-25 0 -37 16t-6 39zM709 1331q4 23 26.5 39t46.5 16q23 0 36 -16t9 -39q-6 -23 -29.5 -39t-45.5 -16q-25 0 -37 16t-6 39z" />
<glyph unicode="&#xa9;" horiz-adv-x="1705" />
<glyph unicode="&#xaa;" horiz-adv-x="366" d="M256 768q12 47 58 81t104 34h71l5 12q10 35 -3.5 62.5t-39.5 27.5q-27 0 -49.5 -2t-45.5 -10l2 51q25 6 49.5 9t57.5 3q47 0 69.5 -39t8.5 -102q-4 -18 -11 -37q-4 -16 -11 -35.5t-11 -42.5q-10 -39 -14 -76.5t2 -48.5h-70l4 13q-35 -20 -82 -21q-53 0 -80.5 35t-13.5 86 zM307 768q-8 -27 9.5 -47.5t48.5 -20.5q29 0 57.5 20.5t36.5 47.5l18 66h-76q-31 0 -59.5 -21.5t-34.5 -44.5z" />
<glyph unicode="&#xab;" horiz-adv-x="1089" d="M211 569l663 457l39 -65l-583 -402l270 -473l-82 -57zM559 569l664 457l39 -65l-584 -402l270 -473l-82 -57z" />
<glyph unicode="&#xac;" horiz-adv-x="1355" d="M272 707l23 86h1190l-123 -459h-86l100 373h-1104z" />
<glyph unicode="&#xad;" horiz-adv-x="862" d="M233 559l23 86h707l-23 -86h-707z" />
<glyph unicode="&#xae;" horiz-adv-x="1705" />
<glyph unicode="&#xb0;" horiz-adv-x="512" d="M375 1145q-6 35 4 76q12 43 37.5 80.5t60.5 64.5t77 42t87 15q80 0 121 -57t18 -145q-10 -41 -34.5 -76t-58.5 -61.5t-74 -42t-78 -15.5q-45 0 -79 15.5t-54.5 42t-26.5 61.5zM436 1221q-14 -53 19.5 -97.5t93.5 -44.5q25 0 52.5 12.5t52 32t43 45t24.5 52.5 q16 59 -14.5 105t-79.5 46q-29 0 -59.5 -12t-57.5 -33.5t-46.5 -49t-27.5 -56.5z" />
<glyph unicode="&#xb1;" horiz-adv-x="925" d="M195 315l22 86h707l-23 -86h-706zM365 942l22 86h309l82 309h86l-82 -309h312l-23 -86h-311l-84 -311h-86l84 311h-309z" />
<glyph unicode="&#xb2;" horiz-adv-x="573" d="M240 649l16 62l414 354q29 25 51 58.5t31 62.5q18 72 -24 123t-112 51q-72 0 -153 -64l-35 52q49 35 100.5 55t106.5 20q51 0 90 -18.5t62.5 -51t30.5 -75.5t-5 -92q-14 -47 -46 -93t-62 -75l-357 -307h336l-16 -62h-428z" />
<glyph unicode="&#xb3;" horiz-adv-x="542" d="M229 725l52 41h16q16 -29 49 -47.5t72 -18.5q31 0 64.5 12.5t62 33t51 48t31.5 58.5q14 59 -21 104t-92 52h-111l19 63h110q31 2 62 14.5t57.5 32t47 45t26.5 51.5q8 27 1 52.5t-25.5 45t-45 31t-59.5 11.5q-39 0 -83 -16.5t-85 -51.5l-35 49q94 80 219 80 q98 0 150.5 -57.5t30.5 -143.5q-31 -123 -162 -176q37 -31 56.5 -81t2.5 -105q-12 -45 -40.5 -84t-67.5 -67.5t-86 -45t-95 -16.5q-61 0 -104 22.5t-68 63.5z" />
<glyph unicode="&#xb4;" horiz-adv-x="428" d="M391 1133l182 178h136l-271 -178h-47z" />
<glyph unicode="&#xb5;" horiz-adv-x="1015" d="M66 -399l380 1423h86l-196 -739q-6 -18 9 -54t46 -72t74 -62.5t94 -26.5q55 0 108.5 22.5t98.5 62.5t80 92t51 111l182 666h84l-184 -666q-23 -78 -68 -146.5t-104 -119.5t-129 -80.5t-141 -29.5q-88 0 -149.5 45t-90.5 116l-147 -542h-84z" />
<glyph unicode="&#xb6;" horiz-adv-x="782" d="M339 948.5q-9 61.5 9 130.5q18 70 61.5 131.5t100.5 106.5t126 71.5t138 26.5h82l-379 -1415h-82l197 741q-70 0 -124 27t-87 73t-42 107.5zM425 988q5 -46 26.5 -80t56.5 -54t80 -20l135 507q-45 0 -91 -20.5t-85 -54t-68.5 -80.5t-44.5 -99q-14 -53 -9 -99zM539 0 l376 1413h82l-376 -1413h-82z" />
<glyph unicode="&#xb7;" horiz-adv-x="460" d="M299 643q10 39 50 70.5t85 31.5q43 0 68.5 -31.5t15.5 -70.5t-52 -69.5t-85 -30.5q-45 0 -68.5 30.5t-13.5 69.5z" />
<glyph unicode="&#xb9;" horiz-adv-x="538" d="M395 1202l316 213h86l-166 -614h-86l135 504l-240 -162z" />
<glyph unicode="&#xba;" horiz-adv-x="475" d="M268 756q-4 35 6 75q25 90 93.5 147.5t148.5 57.5q72 0 109 -57t12 -148q-10 -41 -33.5 -75.5t-54.5 -61t-67 -42t-72 -15.5q-41 0 -71 15.5t-48.5 42t-22.5 61.5zM326 831q-14 -53 15.5 -97t82.5 -44q23 0 47.5 12.5t48 32t41 45t23.5 51.5q16 59 -10.5 106.5 t-71.5 47.5q-27 0 -54.5 -12t-52 -33.5t-43 -49.5t-26.5 -59z" />
<glyph unicode="&#xbb;" horiz-adv-x="1073" d="M162 86l524 473l-371 402l76 65l418 -457l-598 -540zM510 86l524 473l-370 402l75 65l418 -457l-598 -540z" />
<glyph unicode="&#xbc;" horiz-adv-x="782" d="M315 436l146 545l-121 -80l-23 29l158 106h43l-160 -600h-43zM393 260l10 43l345 404l30 -21l-325 -383h211l43 158h43l-43 -158h100l-10 -43h-101l-67 -260h-43l67 260h-260z" />
<glyph unicode="&#xbd;" horiz-adv-x="727" d="M281 0l8 41l389 334q25 23 45 53.5t31 63.5q20 76 -19 126t-114 50q-74 0 -140 -50l-22 31q39 29 82 45.5t90 16.5q45 0 82 -17.5t59.5 -47.5t29.5 -69.5t-5 -84.5t-39 -82t-62 -66l-350 -303h330l-8 -41h-387zM291 436l145 547l-119 -80l-24 29l158 106h43l-160 -602 h-43z" />
<glyph unicode="&#xbe;" horiz-adv-x="937" d="M168 389l39 29q16 -27 47 -43.5t72 -16.5q37 0 71.5 12.5t64.5 34t51.5 49t29.5 60.5q10 43 -3.5 75t-43 52.5t-73.5 27.5t-93 -1l10 43h94q70 4 127 45t74 96q16 61 -23 103t-110 42q-88 0 -156 -57l-20 31q80 68 186 67q45 0 81 -14t58.5 -40t30.5 -59.5t-2 -72.5 q-14 -53 -60.5 -97t-103.5 -67q45 -25 65.5 -71t4.5 -103q-12 -41 -39 -78t-62.5 -63.5t-80 -42t-89.5 -15.5q-51 0 -87.5 20.5t-59.5 53.5zM549 264l12 43l342 404l33 -21l-324 -383h209l41 158h43l-41 -158h103l-13 -43h-102l-70 -260h-43l70 260h-260z" />
<glyph unicode="&#xbf;" horiz-adv-x="884" d="M183.5 217q-11.5 70 9.5 150q20 78 69 147.5t113.5 122.5t139.5 85t149 32h114l-14 661h88l14 -661l-22 -88h-203q-59 -2 -117.5 -26t-107.5 -64.5t-86 -94t-54 -114.5q-16 -61 -8 -115.5t38 -95.5t76 -64.5t107 -23.5q82 0 158 41t135 106l43 -63q-72 -76 -165 -124 t-193 -48q-78 0 -137.5 30.5t-97 83.5t-49 123zM752 1610q8 27 27.5 43t45.5 16q23 0 34 -16.5t3 -42.5q-6 -25 -25.5 -41.5t-41.5 -16.5q-27 0 -38 16.5t-5 41.5z" />
<glyph unicode="&#xc0;" d="M66 0l899 1415h71l146 -1415h-90l-66 588h-498l-372 -588h-90zM584 674h436l-62 590zM844 1702h135l88 -178h-47z" />
<glyph unicode="&#xc1;" d="M66 0l899 1415h71l146 -1415h-90l-66 588h-498l-372 -588h-90zM584 674h436l-62 590zM999 1524l182 178h136l-271 -178h-47z" />
<glyph unicode="&#xc2;" d="M66 0l899 1415h71l146 -1415h-90l-66 588h-498l-372 -588h-90zM584 674h436l-62 590z" />
<glyph unicode="&#xc3;" d="M66 0l899 1415h71l146 -1415h-90l-66 588h-498l-372 -588h-90zM584 674h436l-62 590zM803 1589l47 105q23 -41 68 -52.5t92 15.5h2q66 37 132 34t111 -42l-47 -107v2q-20 43 -67 54.5t-94 -15.5h-3q-66 -37 -130 -34t-111 40z" />
<glyph unicode="&#xc4;" d="M66 0l899 1415h71l146 -1415h-90l-66 588h-498l-372 -588h-90zM584 674h436l-62 590zM827 1562q4 23 26.5 39t47.5 16q23 0 36 -16t9 -39q-6 -23 -29.5 -39t-46.5 -16q-25 0 -37 16t-6 39zM1102 1562q4 23 26.5 39t46.5 16q23 0 36 -16t9 -39q-6 -23 -29.5 -39t-45.5 -16 q-25 0 -37 16t-6 39z" />
<glyph unicode="&#xc5;" d="M66 0l899 1415h71l146 -1415h-90l-66 588h-498l-372 -588h-90zM584 674h436l-62 590z" />
<glyph unicode="&#xc6;" horiz-adv-x="2213" d="M66 0l899 1415h538h783l-23 -82h-731l-143 -536h624l-24 -86h-625l-166 -625h731l-20 -86h-817l153 588h-717l-372 -588h-90zM584 674h686l194 659h-469z" />
<glyph unicode="&#xc7;" horiz-adv-x="1298" d="M268 448.5q-8 118.5 27 251.5q41 154 127 286t200.5 229.5t246.5 152.5t266 55q127 0 225 -51t160 -143q0 -2 1 -2t1 -2l-76 -58l-2 2q-53 80 -138 126t-194 46q-117 0 -233.5 -51t-216 -139t-174 -204t-109.5 -247q-35 -127 -21.5 -242.5t65.5 -203.5t140 -139.5 t207 -51.5q109 0 216.5 45.5t203.5 122.5l45 -57q-119 -98 -247 -145t-263 -47l-31 -48q8 0 23.5 -8t30 -23.5t21.5 -37t1 -45.5q-8 -29 -38 -58.5t-95 -62.5l-53 51q8 0 25.5 3t36 12.5t34.5 22.5t22 36q6 18 -3 30.5t-23 19.5t-30.5 10t-29.5 3h-16l29 105 q-104 25 -182 88t-124.5 156.5t-54.5 212z" />
<glyph unicode="&#xc8;" horiz-adv-x="993" d="M92 0l377 1415h817l-22 -82h-732l-143 -536h625l-25 -86h-624l-166 -625h731l-21 -86h-817zM703 1702h135l88 -178h-47z" />
<glyph unicode="&#xc9;" horiz-adv-x="993" d="M92 0l377 1415h817l-22 -82h-732l-143 -536h625l-25 -86h-624l-166 -625h731l-21 -86h-817zM829 1524l182 178h136l-271 -178h-47z" />
<glyph unicode="&#xca;" horiz-adv-x="993" d="M92 0l377 1415h817l-22 -82h-732l-143 -536h625l-25 -86h-624l-166 -625h731l-21 -86h-817zM692 1554l276 217l162 -219l-65 -51l-123 170l-215 -170z" />
<glyph unicode="&#xcb;" horiz-adv-x="993" d="M92 0l377 1415h817l-22 -82h-732l-143 -536h625l-25 -86h-624l-166 -625h731l-21 -86h-817zM713 1564q4 23 26.5 39t47.5 16q23 0 36 -16t9 -39q-6 -23 -29.5 -39t-46.5 -16q-25 0 -37 16t-6 39zM988 1564q4 23 26.5 39t46.5 16q23 0 36 -16t9 -39q-6 -23 -29.5 -39 t-45.5 -16q-25 0 -37 16t-6 39z" />
<glyph unicode="&#xcc;" horiz-adv-x="268" d="M118 0l377 1415h86l-377 -1415h-86zM408 1702h135l88 -178h-47z" />
<glyph unicode="&#xcd;" horiz-adv-x="315" d="M102 0l377 1415h86l-377 -1415h-86zM530 1524l182 178h136l-271 -178h-47z" />
<glyph unicode="&#xce;" horiz-adv-x="282" d="M102 0l377 1415h86l-377 -1415h-86z" />
<glyph unicode="&#xcf;" horiz-adv-x="282" d="M102 0l377 1415h86l-377 -1415h-86zM366 1562q4 23 26.5 39t47.5 16q23 0 36 -16t9 -39q-6 -23 -29.5 -39t-46.5 -16q-25 0 -37 16t-6 39zM641 1562q4 23 26.5 39t46.5 16q23 0 36 -16t9 -39q-6 -23 -29.5 -39t-45.5 -16q-25 0 -37 16t-6 39z" />
<glyph unicode="&#xd0;" horiz-adv-x="1337" d="M229 0l148 561h-139l22 86h139l207 768h522q102 -2 177 -57t116 -150.5t45 -223.5t-34 -273q-39 -145 -111 -273.5t-163 -223.5t-195.5 -151.5t-208.5 -58.5l2 -4h-527zM336 86h440v4q84 2 171 52.5t164 134t138.5 195.5t96.5 239q33 125 31.5 237.5t-34 196.5t-93 133 t-146.5 51h-436l-183 -682h357l-23 -86h-356z" />
<glyph unicode="&#xd1;" horiz-adv-x="1099" d="M98 0l377 1415h84l399 -1243l334 1243h86l-377 -1415h-86l-401 1249l-332 -1249h-84zM752 1545l47 104q23 -41 67.5 -52t92.5 15h2q66 37 132 34t111 -42l-47 -106l-2 2q-18 43 -66.5 54t-95.5 -16h-2q-63 -37 -127.5 -33.5t-111.5 40.5z" />
<glyph unicode="&#xd2;" horiz-adv-x="1413" d="M223 420q-5 38 -4 78q0 99 29 209q39 150 125 279.5t199.5 227t245.5 153.5t265 56q137 0 240.5 -56t163 -152.5t73.5 -227.5q3 -33 3 -68q0 -101 -29 -212q-43 -160 -130 -294t-208 -233q-115 -96 -242 -147t-258 -51q-129 0 -230 55t-164 152.5t-79 230.5zM312 458 q11 -116 63.5 -202t140.5 -136t205 -50q119 0 235.5 50t215 136t172 201.5t108.5 249.5q26 96 26 182q0 38 -5 75q-16 118 -76 203q-51 80 -138.5 124t-199.5 44q-115 0 -229.5 -49t-212 -134t-172 -199.5t-109.5 -245.5q-26 -101 -26 -192q-1 -29 2 -57zM889 1702h135 l88 -178h-47z" />
<glyph unicode="&#xd3;" horiz-adv-x="1413" d="M223 420q-5 38 -4 78q0 99 29 209q39 150 125 279.5t199.5 227t245.5 153.5t265 56q137 0 240.5 -56t163 -152.5t73.5 -227.5q3 -33 3 -68q0 -101 -29 -212q-43 -160 -130 -294t-208 -233q-115 -96 -242 -147t-258 -51q-129 0 -230 55t-164 152.5t-79 230.5zM312 458 q11 -116 63.5 -202t140.5 -136t205 -50q119 0 235.5 50t215 136t172 201.5t108.5 249.5q26 96 26 182q0 38 -5 75q-16 118 -76 203q-51 80 -138.5 124t-199.5 44q-115 0 -229.5 -49t-212 -134t-172 -199.5t-109.5 -245.5q-26 -101 -26 -192q-1 -29 2 -57zM1112 1524l182 178 h136l-271 -178h-47z" />
<glyph unicode="&#xd4;" horiz-adv-x="1413" d="M223 420q-5 38 -4 78q0 99 29 209q39 150 125 279.5t199.5 227t245.5 153.5t265 56q137 0 240.5 -56t163 -152.5t73.5 -227.5q3 -33 3 -68q0 -101 -29 -212q-43 -160 -130 -294t-208 -233q-115 -96 -242 -147t-258 -51q-129 0 -230 55t-164 152.5t-79 230.5zM312 458 q11 -116 63.5 -202t140.5 -136t205 -50q119 0 235.5 50t215 136t172 201.5t108.5 249.5q26 96 26 182q0 38 -5 75q-16 118 -76 203q-51 80 -138.5 124t-199.5 44q-115 0 -229.5 -49t-212 -134t-172 -199.5t-109.5 -245.5q-26 -101 -26 -192q-1 -29 2 -57zM901 1554l276 217 l162 -219l-65 -51l-123 170l-215 -170z" />
<glyph unicode="&#xd5;" horiz-adv-x="1413" d="M223 420q-5 38 -4 78q0 99 29 209q39 150 125 279.5t199.5 227t245.5 153.5t265 56q137 0 240.5 -56t163 -152.5t73.5 -227.5q3 -33 3 -68q0 -101 -29 -212q-43 -160 -130 -294t-208 -233q-115 -96 -242 -147t-258 -51q-129 0 -230 55t-164 152.5t-79 230.5zM312 458 q11 -116 63.5 -202t140.5 -136t205 -50q119 0 235.5 50t215 136t172 201.5t108.5 249.5q26 96 26 182q0 38 -5 75q-16 118 -76 203q-51 80 -138.5 124t-199.5 44q-115 0 -229.5 -49t-212 -134t-172 -199.5t-109.5 -245.5q-26 -101 -26 -192q-1 -29 2 -57zM908 1547l47 104 q23 -41 67.5 -52t92.5 15h2q66 37 132 34t111 -42l-47 -106l-2 2q-18 43 -66.5 54t-95.5 -16h-2q-63 -37 -127.5 -33.5t-111.5 40.5z" />
<glyph unicode="&#xd6;" horiz-adv-x="1413" d="M223 420q-5 38 -4 78q0 99 29 209q39 150 125 279.5t199.5 227t245.5 153.5t265 56q137 0 240.5 -56t163 -152.5t73.5 -227.5q3 -33 3 -68q0 -101 -29 -212q-43 -160 -130 -294t-208 -233q-115 -96 -242 -147t-258 -51q-129 0 -230 55t-164 152.5t-79 230.5zM312 458 q11 -116 63.5 -202t140.5 -136t205 -50q119 0 235.5 50t215 136t172 201.5t108.5 249.5q26 96 26 182q0 38 -5 75q-16 118 -76 203q-51 80 -138.5 124t-199.5 44q-115 0 -229.5 -49t-212 -134t-172 -199.5t-109.5 -245.5q-26 -101 -26 -192q-1 -29 2 -57zM923 1564 q4 23 26.5 39t47.5 16q23 0 36 -16t9 -39q-6 -23 -29.5 -39t-46.5 -16q-25 0 -37 16t-6 39zM1198 1564q4 23 26.5 39t46.5 16q23 0 36 -16t9 -39q-6 -23 -29.5 -39t-45.5 -16q-25 0 -37 16t-6 39z" />
<glyph unicode="&#xd7;" horiz-adv-x="751" d="M195 424l278 221l-160 217l76 62l162 -219l276 219l47 -60l-278 -219l160 -221l-76 -59l-162 219l-278 -219z" />
<glyph unicode="&#xd8;" horiz-adv-x="1413" d="M219 497.5q0 100.5 29 209.5q39 150 125 279.5t199.5 227t245.5 153.5t265 56q102 0 195 -34l18 26h93l-39 -61q141 -94 191 -263t-7 -384q-43 -160 -130 -294t-208 -233q-115 -96 -242 -147t-258 -51q-53 0 -101 10t-91 26l-8 -18h-95l33 55q-68 41 -116 107.5 t-73.5 150.5t-25.5 184.5zM310 526q-1 -86 18.5 -159.5t59.5 -133t95 -98.5l742 1170q-74 31 -166 30q-115 0 -229.5 -49t-212 -134t-172 -199.5t-109.5 -245.5q-25 -95 -26 -181zM555 100q74 -31 166 -30q119 0 235.5 50t215 136t172 201.5t108.5 249.5q37 139 20.5 256.5 t-75.5 203.5q-39 61 -101 103z" />
<glyph unicode="&#xd9;" horiz-adv-x="1224" d="M182 354l285 1061h92l-285 -1061q-4 -22 -4 -42q0 -36 14 -69q22 -52 70.5 -90t120.5 -60.5t160 -22.5q84 0 166 22.5t149.5 60t116.5 90t70 111.5l284 1061h86l-284 -1061q-25 -76 -84.5 -143.5t-142.5 -118.5t-183 -80.5t-203 -29.5q-106 0 -192 29.5t-143.5 80.5 t-83.5 119q-16 41 -15 85q0 28 6 58zM832 1702h135l88 -178h-47z" />
<glyph unicode="&#xda;" horiz-adv-x="1224" d="M182 354l285 1061h92l-285 -1061q-4 -22 -4 -42q0 -36 14 -69q22 -52 70.5 -90t120.5 -60.5t160 -22.5q84 0 166 22.5t149.5 60t116.5 90t70 111.5l284 1061h86l-284 -1061q-25 -76 -84.5 -143.5t-142.5 -118.5t-183 -80.5t-203 -29.5q-106 0 -192 29.5t-143.5 80.5 t-83.5 119q-16 41 -15 85q0 28 6 58zM991 1524l182 178h136l-271 -178h-47z" />
<glyph unicode="&#xdb;" horiz-adv-x="1224" d="M182 354l285 1061h92l-285 -1061q-4 -22 -4 -42q0 -36 14 -69q22 -52 70.5 -90t120.5 -60.5t160 -22.5q84 0 166 22.5t149.5 60t116.5 90t70 111.5l284 1061h86l-284 -1061q-25 -76 -84.5 -143.5t-142.5 -118.5t-183 -80.5t-203 -29.5q-106 0 -192 29.5t-143.5 80.5 t-83.5 119q-16 41 -15 85q0 28 6 58zM807 1554l276 217l162 -219l-65 -51l-123 170l-215 -170z" />
<glyph unicode="&#xdc;" horiz-adv-x="1224" d="M182 354l285 1061h92l-285 -1061q-4 -22 -4 -42q0 -36 14 -69q22 -52 70.5 -90t120.5 -60.5t160 -22.5q84 0 166 22.5t149.5 60t116.5 90t70 111.5l284 1061h86l-284 -1061q-25 -76 -84.5 -143.5t-142.5 -118.5t-183 -80.5t-203 -29.5q-106 0 -192 29.5t-143.5 80.5 t-83.5 119q-16 41 -15 85q0 28 6 58zM829 1562q4 23 26.5 39t47.5 16q23 0 36 -16t9 -39q-6 -23 -29.5 -39t-46.5 -16q-25 0 -37 16t-6 39zM1104 1562q4 23 26.5 39t46.5 16q23 0 36 -16t9 -39q-6 -23 -29.5 -39t-45.5 -16q-25 0 -37 16t-6 39z" />
<glyph unicode="&#xdd;" horiz-adv-x="1394" d="M451 1415h116l318 -692l698 692h115l-789 -774l-168 -641h-88l168 641zM1093 1524l182 178h136l-271 -178h-47z" />
<glyph unicode="&#xde;" horiz-adv-x="1095" d="M18 -401l488 1818h86l-123 -456q66 35 149.5 57t176.5 22q102 -2 181 -44t126 -112.5t60.5 -165.5t-15.5 -204q-31 -111 -95.5 -208t-150.5 -168.5t-187.5 -113.5t-203.5 -42q-94 0 -161.5 24.5t-121.5 54.5l-125 -462h-84zM264 195q-10 -25 7.5 -47.5t54 -40t90 -27.5 t116.5 -12q84 2 167 37.5t155 95t125 140.5t78 171q25 88 13.5 168t-50.5 140.5t-103.5 96t-146.5 35.5q-59 0 -114.5 -8t-101.5 -23.5t-78 -36t-44 -42.5z" />
<glyph unicode="&#xdf;" horiz-adv-x="1064" d="M12 -354l475 1769h86h367q76 -2 136.5 -30.5t99 -75.5t51 -109.5t-5.5 -132.5q-29 -104 -106 -187t-181 -130q94 -45 131 -139.5t6 -209.5q-23 -80 -72 -151.5t-118.5 -125.5t-151.5 -86t-168 -34h-174l-59 82h256q68 2 132 28.5t118.5 69.5t94.5 98.5t56 118.5 q16 61 5 115.5t-46 96.5t-93 68t-138 30h-330l-285 -1065h-86zM408 797h366q61 2 119.5 23.5t107 57t84 85t50.5 104.5q14 51 3.5 98t-39 84t-75.5 58.5t-106 25.5h-37h-330z" />
<glyph unicode="&#xe0;" horiz-adv-x="831" d="M173 171q-5 23 -5 47q0 35 10 71q18 63 59.5 120.5t97.5 100.5t122.5 67.5t134.5 24.5h246l12 43q2 8 6 21q13 50 13 96q0 7 -1 13q-2 52 -19.5 90t-50 61.5t-77.5 25.5h-2q-33 0 -55.5 -2t-43 -7t-41.5 -11l-49 -14v79l54.5 17.5t46 12.5t49.5 7t61 2h2 q61 -2 106.5 -29.5t72 -74.5t33.5 -110q2 -21 3 -42q0 -44 -10 -92l-6 -22l-90 -326l-33 -121l-30 -107l-21 -79q-8 -31 -8 -33h-82l20 84q-59 -47 -129.5 -74.5t-142.5 -27.5q-68 0 -121 24.5t-87 66.5t-45 98zM260 202q8 -40 33.5 -70t65.5 -47t90 -17q51 0 100 17t91 47 t72.5 71t43.5 88l59 223q-90 0 -139 1t-72 1h-27h-8q-49 0 -98 -18.5t-91 -49t-73 -71.5t-43 -88q-7 -28 -7 -54q0 -17 3 -33zM645 1311h135l88 -178h-47z" />
<glyph unicode="&#xe1;" horiz-adv-x="831" d="M173 171q-5 23 -5 47q0 35 10 71q18 63 59.5 120.5t97.5 100.5t122.5 67.5t134.5 24.5h246l12 43q2 8 6 21q13 50 13 96q0 7 -1 13q-2 52 -19.5 90t-50 61.5t-77.5 25.5h-2q-33 0 -55.5 -2t-43 -7t-41.5 -11l-49 -14v79l54.5 17.5t46 12.5t49.5 7t61 2h2 q61 -2 106.5 -29.5t72 -74.5t33.5 -110q2 -21 3 -42q0 -44 -10 -92l-6 -22l-90 -326l-33 -121l-30 -107l-21 -79q-8 -31 -8 -33h-82l20 84q-59 -47 -129.5 -74.5t-142.5 -27.5q-68 0 -121 24.5t-87 66.5t-45 98zM260 202q8 -40 33.5 -70t65.5 -47t90 -17q51 0 100 17t91 47 t72.5 71t43.5 88l59 223q-90 0 -139 1t-72 1h-27h-8q-49 0 -98 -18.5t-91 -49t-73 -71.5t-43 -88q-7 -28 -7 -54q0 -17 3 -33zM737 1133l182 178h136l-271 -178h-47z" />
<glyph unicode="&#xe2;" horiz-adv-x="831" d="M173 171q-5 23 -5 47q0 35 10 71q18 63 59.5 120.5t97.5 100.5t122.5 67.5t134.5 24.5h246l12 43q2 8 6 21q13 50 13 96q0 7 -1 13q-2 52 -19.5 90t-50 61.5t-77.5 25.5h-2q-33 0 -55.5 -2t-43 -7t-41.5 -11l-49 -14v79l54.5 17.5t46 12.5t49.5 7t61 2h2 q61 -2 106.5 -29.5t72 -74.5t33.5 -110q2 -21 3 -42q0 -44 -10 -92l-6 -22l-90 -326l-33 -121l-30 -107l-21 -79q-8 -31 -8 -33h-82l20 84q-59 -47 -129.5 -74.5t-142.5 -27.5q-68 0 -121 24.5t-87 66.5t-45 98zM260 202q8 -40 33.5 -70t65.5 -47t90 -17q51 0 100 17t91 47 t72.5 71t43.5 88l59 223q-90 0 -139 1t-72 1h-27h-8q-49 0 -98 -18.5t-91 -49t-73 -71.5t-43 -88q-7 -28 -7 -54q0 -17 3 -33zM582 1163l276 217l162 -219l-65 -51l-123 170l-215 -170z" />
<glyph unicode="&#xe3;" horiz-adv-x="831" d="M173 171q-11 56 5 118q18 63 59.5 120.5t97.5 100.5t122.5 67.5t134.5 24.5h246l12 43q2 8 6 21q14 57 12 109t-19.5 90t-50 61.5t-77.5 25.5h-2q-33 0 -55.5 -2t-43 -7t-41.5 -11l-49 -14v79l54.5 17.5t46 12.5t49.5 7t61 2h2q61 -2 106.5 -29.5t72 -74.5t34 -109.5 t-7.5 -134.5l-6 -22l-90 -326l-33 -121l-29 -107l-22 -79q-8 -31 -8 -33h-82l20 84q-59 -47 -129.5 -74.5t-142.5 -27.5q-68 0 -121 24.5t-87 66.5t-45 98zM260 202q8 -40 33.5 -70t65.5 -47t90 -17q51 0 100 17t91 47t72.5 71t43.5 88l59 223q-90 0 -139 1t-72 1h-27h-8 q-49 0 -98 -18.5t-91 -49t-73 -71.5t-43 -88t-4 -87zM586 1212l43 88q23 -35 68.5 -44t93.5 14h2q63 31 129.5 27.5t113.5 -35.5l-43 -91l-2 3q-23 37 -70 46t-94 -14h-2q-61 -31 -126.5 -28t-112.5 34z" />
<glyph unicode="&#xe4;" horiz-adv-x="831" d="M173 171q-11 56 5 118q18 63 59.5 120.5t97.5 100.5t122.5 67.5t134.5 24.5h246l12 43q2 8 6 21q14 57 12 109t-19.5 90t-50 61.5t-77.5 25.5h-2q-33 0 -55.5 -2t-43 -7t-41.5 -11l-49 -14v79l54.5 17.5t46 12.5t49.5 7t61 2h2q61 -2 106.5 -29.5t72 -74.5t34 -109.5 t-7.5 -134.5l-6 -22l-90 -326l-33 -121l-29 -107l-22 -79q-8 -31 -8 -33h-82l20 84q-59 -47 -129.5 -74.5t-142.5 -27.5q-68 0 -121 24.5t-87 66.5t-45 98zM260 202q8 -40 33.5 -70t65.5 -47t90 -17q51 0 100 17t91 47t72.5 71t43.5 88l59 223q-90 0 -139 1t-72 1h-27h-8 q-49 0 -98 -18.5t-91 -49t-73 -71.5t-43 -88t-4 -87zM662 1298q6 23 28.5 39.5t46.5 16.5q23 0 36 -16.5t7 -39.5q-4 -23 -27.5 -39t-45.5 -16q-25 0 -37 16t-8 39zM936 1298q6 23 28.5 39.5t47.5 16.5q23 0 36 -16.5t7 -39.5q-4 -23 -27.5 -39t-46.5 -16q-25 0 -37 16 t-8 39z" />
<glyph unicode="&#xe5;" horiz-adv-x="835" d="M130 171q-5 23 -5 47q0 35 10 71q18 63 59.5 120.5t97.5 100.5t122.5 67.5t134.5 24.5h246l12 43q2 8 6 21q13 50 13 96q0 7 -1 13q-2 52 -19.5 90t-50 61.5t-77.5 25.5h-2q-33 0 -55.5 -2t-43 -7t-41.5 -11l-49 -14v79l54.5 17.5t46 12.5t49.5 7t61 2h2 q61 -2 106.5 -29.5t72 -74.5t33.5 -110q2 -21 3 -42q0 -44 -10 -92l-6 -22l-90 -326l-33 -121l-30 -107l-21 -79q-8 -31 -8 -33h-82l20 84q-59 -47 -129.5 -74.5t-142.5 -27.5q-68 0 -121 24.5t-87 66.5t-45 98zM217 202q8 -40 33.5 -70t65.5 -47t90 -17q51 0 100 17t91 47 t72.5 71t43.5 88l59 223q-90 0 -139 1t-72 1h-27h-8q-49 0 -98 -18.5t-91 -49t-73 -71.5t-43 -88q-7 -28 -7 -54q0 -17 3 -33z" />
<glyph unicode="&#xe6;" horiz-adv-x="1521" d="M152.5 169q-11.5 56 5.5 120q18 63 59 120.5t97.5 99.5t123 66.5t133.5 24.5h236q12 37 31 66q29 119 -13.5 199.5t-128.5 84.5h-2q-66 0 -128 -7t-117 -23l2 81q127 35 266 35h2q92 -4 148.5 -63.5t66.5 -155.5q86 100 187.5 160.5t203.5 60.5q86 0 148.5 -40 t98.5 -109.5t42 -163.5t-23 -205l-14 -49h-711l-24 -94q-2 -68 14 -124t48 -98t78 -65.5t105 -23.5q33 0 71 7t77 18t75 24.5t64 25.5l15 -75q-117 -57 -269 -82h-2q-12 -2 -25 -2h-28q-98 0 -171 50t-108 136l-26 -117q-10 -47 -2 -51h-96l18 82q-59 -47 -130 -74.5 t-144 -27.5q-68 0 -121.5 24.5t-87 66.5t-45 98zM241.5 202q8.5 -40 33 -70t63.5 -47t90 -17t100.5 17t91.5 47t72.5 70t42.5 87l19 63q-2 29 2 58.5t10 60.5l12 45h-229q-51 0 -99.5 -18.5t-89.5 -49t-71.5 -71.5t-42.5 -88q-13 -47 -4.5 -87zM891 555h627q16 82 8 154.5 t-37 126t-76 84t-110 30.5q-61 0 -125 -29.5t-120.5 -83t-100 -126t-66.5 -156.5z" />
<glyph unicode="&#xe7;" horiz-adv-x="1009" d="M194.5 321.5q-8.5 88.5 18.5 188.5q29 109 93.5 204t149.5 166.5t186 113.5t204 42q104 0 183 -43t126 -119l-76 -59q-41 61 -105.5 98t-150.5 37q-84 0 -168 -34.5t-154.5 -94t-123.5 -139.5t-78 -172t-14.5 -173t49.5 -140.5t103.5 -94t148.5 -34.5t167 33.5t152 93.5 l45 -60q-78 -66 -172 -106.5t-192 -46.5l-31 -56q8 0 23.5 -8t30 -23.5t21.5 -37t1 -45.5q-8 -29 -39 -60t-96 -65l-54 53q14 2 33 7t36 13.5t30.5 19.5t17.5 27q6 23 -1 37.5t-21.5 21.5t-32 10t-29.5 3q-4 0 -10 -1t-10 -1l34 111q-84 14 -148.5 60t-101 115.5t-45 158z " />
<glyph unicode="&#xe8;" horiz-adv-x="933" d="M174 280q-4 31 -4 64q0 61 14 127l11 39q29 109 87 205t132.5 167.5t159.5 113.5t169 42q86 0 149.5 -35.5t100.5 -101t44 -157.5l2 -37q0 -76 -23 -164l-15 -49h-722q-13 -60 -13 -115q0 -25 2 -48q8 -77 39 -135.5t83 -93t120 -34.5q43 0 89 7t90 19t82 28.5t67 33.5 l12 -80q-59 -37 -143 -59.5t-168 -32.5h-2q-12 -2 -26 -2h-28q-86 0 -151.5 37.5t-105.5 104.5t-52 156zM301 578h641q10 52 11 99q0 26 -4 51q-9 69 -38.5 118t-78 76.5t-111.5 27.5q-61 0 -123.5 -27.5t-119 -76.5t-102.5 -117.5t-75 -150.5zM643 1311h135l88 -178h-47z " />
<glyph unicode="&#xe9;" horiz-adv-x="933" d="M174 280q-4 31 -4 64q0 61 14 127l11 39q29 109 87 205t132.5 167.5t159.5 113.5t169 42q86 0 149.5 -35.5t100.5 -101t44 -157.5l2 -37q0 -76 -23 -164l-15 -49h-722q-13 -60 -13 -115q0 -25 2 -48q8 -77 39 -135.5t83 -93t120 -34.5q43 0 89 7t90 19t82 28.5t67 33.5 l12 -80q-59 -37 -143 -59.5t-168 -32.5h-2q-12 -2 -26 -2h-28q-86 0 -151.5 37.5t-105.5 104.5t-52 156zM301 578h641q10 52 11 99q0 26 -4 51q-9 69 -38.5 118t-78 76.5t-111.5 27.5q-61 0 -123.5 -27.5t-119 -76.5t-102.5 -117.5t-75 -150.5zM758 1133l182 178h136 l-271 -178h-47z" />
<glyph unicode="&#xea;" horiz-adv-x="933" d="M174 280q-4 31 -4 64q0 61 14 127l11 39q29 109 87 205t132.5 167.5t159.5 113.5t169 42q86 0 149.5 -35.5t100.5 -101t44 -157.5l2 -37q0 -76 -23 -164l-15 -49h-722q-13 -60 -13 -115q0 -25 2 -48q8 -77 39 -135.5t83 -93t120 -34.5q43 0 89 7t90 19t82 28.5t67 33.5 l12 -80q-59 -37 -143 -59.5t-168 -32.5h-2q-12 -2 -26 -2h-28q-86 0 -151.5 37.5t-105.5 104.5t-52 156zM301 578h641q10 52 11 99q0 26 -4 51q-9 69 -38.5 118t-78 76.5t-111.5 27.5q-61 0 -123.5 -27.5t-119 -76.5t-102.5 -117.5t-75 -150.5zM555 1163l276 217l162 -219 l-65 -51l-123 170l-215 -170z" />
<glyph unicode="&#xeb;" horiz-adv-x="933" d="M174 280q-4 31 -4 64q0 61 14 127l11 39q29 109 87 205t132.5 167.5t159.5 113.5t169 42q86 0 149.5 -35.5t100.5 -101t44 -157.5l2 -37q0 -76 -23 -164l-15 -49h-722q-13 -60 -13 -115q0 -25 2 -48q8 -77 39 -135.5t83 -93t120 -34.5q43 0 89 7t90 19t82 28.5t67 33.5 l12 -80q-59 -37 -143 -59.5t-168 -32.5h-2q-12 -2 -26 -2h-28q-86 0 -151.5 37.5t-105.5 104.5t-52 156zM301 578h641q10 52 11 99q0 26 -4 51q-9 69 -38.5 118t-78 76.5t-111.5 27.5q-61 0 -123.5 -27.5t-119 -76.5t-102.5 -117.5t-75 -150.5zM624 1331q4 23 26.5 39 t47.5 16q23 0 36 -16t9 -39q-6 -23 -29.5 -39t-46.5 -16q-25 0 -37 16t-6 39zM899 1331q4 23 26.5 39t46.5 16q23 0 36 -16t9 -39q-6 -23 -29.5 -39t-45.5 -16q-25 0 -37 16t-6 39z" />
<glyph unicode="&#xec;" horiz-adv-x="432" d="M197 0l270 1024h84l-270 -1024h-84zM381 1311h135l88 -178h-47z" />
<glyph unicode="&#xed;" horiz-adv-x="432" d="M135 0l271 1024h83l-270 -1024h-84zM408 1133l182 178h135l-270 -178h-47z" />
<glyph unicode="&#xee;" horiz-adv-x="362" d="M135 0l271 1024h83l-270 -1024h-84zM270 1163l277 217l162 -219l-66 -51l-123 170l-215 -170z" />
<glyph unicode="&#xef;" horiz-adv-x="362" d="M135 0l271 1024h83l-270 -1024h-84zM379 1331q4 23 26.5 39t47.5 16q23 0 36 -16t9 -39q-6 -23 -30 -39t-46 -16q-25 0 -37 16t-6 39zM571 1331q4 23 27 39t47 16q23 0 36 -16t9 -39q-6 -23 -29.5 -39t-46.5 -16q-25 0 -37 16t-6 39z" />
<glyph unicode="&#xf0;" horiz-adv-x="1001" d="M164 154l100 67q31 -70 93.5 -108.5t142.5 -38.5q68 0 133 22.5t122.5 62.5t104.5 95t78 119q31 76 59.5 156.5t51.5 166.5l8 34q4 17 10 36q-80 -86 -188.5 -136t-225.5 -50q-84 0 -151.5 31.5t-109.5 86t-57.5 128t5.5 159.5q4 8 4 14q25 88 79 165t127 135.5t160 92 t175 33.5t156.5 -32.5t111.5 -88t56.5 -130t-5.5 -160.5l-2 -6q-16 -84 -40 -172l-46 -172q-23 -82 -48.5 -161t-59.5 -153q-37 -80 -96.5 -147.5t-131 -115.5t-153.5 -74.5t-164 -26.5q-102 0 -180 47t-119 121zM422 862.5q12 -59.5 46 -103.5t87 -69.5t121 -25.5 q74 0 144.5 26.5t130 72.5t103.5 108.5t62 134.5q18 68 6 128t-47 105t-90 71.5t-123 26.5q-74 0 -144.5 -28.5t-130 -75.5t-102.5 -110.5t-61 -133.5q-14 -67 -2 -126.5z" />
<glyph unicode="&#xf1;" horiz-adv-x="886" d="M82 0l270 1024h86l-39 -145q72 78 157 119.5t173 41.5q72 0 126 -29.5t87 -79.5t42 -119t-9 -146l-172 -666h-86l176 666q14 61 8 113t-29.5 91t-64.5 61.5t-96 22.5q-51 0 -105.5 -19.5t-103.5 -54t-88 -81.5t-62 -103l-184 -696h-86zM551 1200l41 88q23 -35 69 -44 t93 13h2q63 31 129.5 28t113.5 -36l-43 -90l-2 2q-20 37 -67 46.5t-94 -13.5h-2q-63 -31 -128 -28t-112 34z" />
<glyph unicode="&#xf2;" horiz-adv-x="1079" d="M164 302q-4 29 -4 58q0 69 20 146q29 111 93.5 207t148.5 167.5t183.5 113.5t197.5 42t174 -42t121 -113.5t56 -167.5q3 -27 3 -56q0 -72 -20 -151q-29 -109 -92.5 -204t-147.5 -167t-181.5 -113.5t-195.5 -41.5t-175 41.5t-123 113.5t-58 167zM251 335q9 -81 47 -140.5 t100.5 -94t144.5 -34.5q80 0 159.5 34.5t148.5 94t121 140.5t77 171q18 67 17 128q0 23 -2 45q-9 81 -45 141.5t-97.5 95t-141.5 34.5q-82 0 -163.5 -34.5t-151.5 -95t-122 -141.5t-77 -173q-18 -66 -18 -126q0 -23 3 -45zM670 1311h135l88 -178h-47z" />
<glyph unicode="&#xf3;" horiz-adv-x="1079" d="M164 302q-4 29 -4 58q0 69 20 146q29 111 93.5 207t148.5 167.5t183.5 113.5t197.5 42t174 -42t121 -113.5t56 -167.5q3 -27 3 -56q0 -72 -20 -151q-29 -109 -92.5 -204t-147.5 -167t-181.5 -113.5t-195.5 -41.5t-175 41.5t-123 113.5t-58 167zM251 335q9 -81 47 -140.5 t100.5 -94t144.5 -34.5q80 0 159.5 34.5t148.5 94t121 140.5t77 171q18 67 17 128q0 23 -2 45q-9 81 -45 141.5t-97.5 95t-141.5 34.5q-82 0 -163.5 -34.5t-151.5 -95t-122 -141.5t-77 -173q-18 -66 -18 -126q0 -23 3 -45zM813 1133l182 178h136l-271 -178h-47z" />
<glyph unicode="&#xf4;" horiz-adv-x="1050" d="M164 302q-4 29 -4 58q0 69 20 146q29 111 93.5 207t148.5 167.5t183.5 113.5t197.5 42t174 -42t121 -113.5t56 -167.5q3 -27 3 -56q0 -72 -20 -151q-29 -109 -92.5 -204t-147.5 -167t-181.5 -113.5t-195.5 -41.5t-175 41.5t-123 113.5t-58 167zM251 335q9 -81 47 -140.5 t100.5 -94t144.5 -34.5q80 0 159.5 34.5t148.5 94t121 140.5t77 171q18 67 17 128q0 23 -2 45q-9 81 -45 141.5t-97.5 95t-141.5 34.5q-82 0 -163.5 -34.5t-151.5 -95t-122 -141.5t-77 -173q-18 -66 -18 -126q0 -23 3 -45zM615 1163l276 217l162 -219l-65 -51l-123 170 l-215 -170z" />
<glyph unicode="&#xf5;" horiz-adv-x="1050" d="M164 302q-4 29 -4 58q0 69 20 146q29 111 93.5 207t148.5 167.5t183.5 113.5t197.5 42t174 -42t121 -113.5t56 -167.5q3 -27 3 -56q0 -72 -20 -151q-29 -109 -92.5 -204t-147.5 -167t-181.5 -113.5t-195.5 -41.5t-175 41.5t-123 113.5t-58 167zM251 335q9 -81 47 -140.5 t100.5 -94t144.5 -34.5q80 0 159.5 34.5t148.5 94t121 140.5t77 171q18 67 17 128q0 23 -2 45q-9 81 -45 141.5t-97.5 95t-141.5 34.5q-82 0 -163.5 -34.5t-151.5 -95t-122 -141.5t-77 -173q-18 -66 -18 -126q0 -23 3 -45zM656 1221l47 104q23 -41 67.5 -52t92.5 15h2 q66 37 132 34t111 -42l-47 -106l-2 2q-18 43 -66.5 54t-95.5 -16h-2q-63 -37 -127.5 -33.5t-111.5 40.5z" />
<glyph unicode="&#xf6;" horiz-adv-x="1079" d="M164 302q-4 29 -4 58q0 69 20 146q29 111 93.5 207t148.5 167.5t183.5 113.5t197.5 42t174 -42t121 -113.5t56 -167.5q3 -27 3 -56q0 -72 -20 -151q-29 -109 -92.5 -204t-147.5 -167t-181.5 -113.5t-195.5 -41.5t-175 41.5t-123 113.5t-58 167zM251 335q9 -81 47 -140.5 t100.5 -94t144.5 -34.5q80 0 159.5 34.5t148.5 94t121 140.5t77 171q18 67 17 128q0 23 -2 45q-9 81 -45 141.5t-97.5 95t-141.5 34.5q-82 0 -163.5 -34.5t-151.5 -95t-122 -141.5t-77 -173q-18 -66 -18 -126q0 -23 3 -45zM708 1331q4 23 26.5 39t47.5 16q23 0 36 -16t9 -39 q-6 -23 -29.5 -39t-46.5 -16q-25 0 -37 16t-6 39zM983 1331q4 23 26.5 39t46.5 16q23 0 36 -16t9 -39q-6 -23 -29.5 -39t-45.5 -16q-25 0 -37 16t-6 39z" />
<glyph unicode="&#xf7;" horiz-adv-x="870" d="M221 559l23 86h706l-22 -86h-707zM438 287l35 131h131l-35 -131h-131zM573 793l35 131h131l-34 -131h-132z" />
<glyph unicode="&#xf8;" horiz-adv-x="1050" d="M176 233q-37 119 4 273q29 111 93.5 207t148.5 167.5t183.5 113.5t197.5 42q100 0 176 -44t121 -118l-82 -57q-35 61 -96.5 97t-141.5 36q-82 0 -163.5 -34.5t-151.5 -95t-122 -141.5t-77 -173q-31 -117 -8 -215zM203 166l78 55q35 -72 102.5 -113.5t159.5 -41.5 q80 0 159.5 34.5t148.5 94t121 140.5t77 171q37 135 -2 248l83 57q23 -66 26 -142.5t-19 -162.5q-29 -109 -92.5 -204t-147.5 -167t-181.5 -113.5t-195.5 -41.5q-111 0 -192.5 50t-124.5 136z" />
<glyph unicode="&#xf9;" horiz-adv-x="921" d="M186 212q-3 21 -2 43q0 49 13 103l172 666h84l-174 -666q-10 -40 -10 -76q0 -18 2 -35q7 -52 32 -92t66 -62.5t96 -22.5q51 0 104.5 20.5t101.5 55t85 81.5t57 101l186 696h86l-247 -926l-25 -98h-84l35 143q-66 -72 -152 -116.5t-174 -44.5q-72 0 -126 29.5t-86 80.5 t-40 120zM594 1311h135l88 -178h-47z" />
<glyph unicode="&#xfa;" horiz-adv-x="921" d="M186 212q-3 21 -2 43q0 49 13 103l172 666h84l-174 -666q-10 -40 -10 -76q0 -18 2 -35q7 -52 32 -92t66 -62.5t96 -22.5q51 0 104.5 20.5t101.5 55t85 81.5t57 101l186 696h86l-247 -926l-25 -98h-84l35 143q-66 -72 -152 -116.5t-174 -44.5q-72 0 -126 29.5t-86 80.5 t-40 120zM704 1133l182 178h136l-271 -178h-47z" />
<glyph unicode="&#xfb;" horiz-adv-x="921" d="M186 212q-3 21 -2 43q0 49 13 103l172 666h84l-174 -666q-10 -40 -10 -76q0 -18 2 -35q7 -52 32 -92t66 -62.5t96 -22.5q51 0 104.5 20.5t101.5 55t85 81.5t57 101l186 696h86l-247 -926l-25 -98h-84l35 143q-66 -72 -152 -116.5t-174 -44.5q-72 0 -126 29.5t-86 80.5 t-40 120zM549 1163l276 217l162 -219l-65 -51l-123 170l-215 -170z" />
<glyph unicode="&#xfc;" horiz-adv-x="921" d="M186 212q-3 21 -2 43q0 49 13 103l172 666h84l-174 -666q-10 -40 -10 -76q0 -18 2 -35q7 -52 32 -92t66 -62.5t96 -22.5q51 0 104.5 20.5t101.5 55t85 81.5t57 101l186 696h86l-247 -926l-25 -98h-84l35 143q-66 -72 -152 -116.5t-174 -44.5q-72 0 -126 29.5t-86 80.5 t-40 120zM618 1331q4 23 26.5 39t47.5 16q23 0 36 -16t9 -39q-6 -23 -29.5 -39t-46.5 -16q-25 0 -37 16t-6 39zM893 1331q4 23 26.5 39t46.5 16q23 0 36 -16t9 -39q-6 -23 -29.5 -39t-45.5 -16q-25 0 -37 16t-6 39z" />
<glyph unicode="&#xfd;" horiz-adv-x="1095" d="M2 -399l35 88q2 -4 5 -6t7 -7h2q10 0 22.5 -1t24.5 -1q72 0 154 48.5t143 140.5l139 209l-139 964h92l115 -864l571 864h93l-652 -964l-153 -240l-11 -18q-78 -109 -180 -166.5t-198 -57.5q-33 1 -70 11zM833 1133l182 178h136l-271 -178h-47z" />
<glyph unicode="&#xfe;" horiz-adv-x="1058" d="M18 -401l488 1818h86l-123 -456q66 35 149.5 57t176.5 22q102 -2 181 -44t126 -112.5t60.5 -165.5t-15.5 -204q-31 -111 -95.5 -208t-150.5 -168.5t-187.5 -113.5t-203.5 -42q-94 0 -161.5 24.5t-121.5 54.5l-125 -462h-84zM264 195q-10 -25 7.5 -47.5t54 -40t90 -27.5 t116.5 -12q84 2 167 37.5t155 95t125 140.5t78 171q25 88 13.5 168t-50.5 140.5t-103.5 96t-146.5 35.5q-59 0 -114.5 -8t-101.5 -23.5t-78 -36t-44 -42.5z" />
<glyph unicode="&#xff;" horiz-adv-x="1095" d="M2 -399l35 88q2 -4 5 -6t7 -7h2q10 0 22.5 -1t24.5 -1q72 0 154 48.5t143 140.5l139 209l-139 964h92l115 -864l571 864h93l-652 -964l-153 -240l-11 -18q-78 -109 -180 -166.5t-198 -57.5q-33 1 -70 11zM727 1331q4 23 26.5 39t47.5 16q23 0 36 -16t9 -39 q-6 -23 -29.5 -39t-46.5 -16q-25 0 -37 16t-6 39zM1002 1331q4 23 26.5 39t46.5 16q23 0 36 -16t9 -39q-6 -23 -29.5 -39t-45.5 -16q-25 0 -37 16t-6 39z" />
<glyph unicode="&#x152;" horiz-adv-x="2162" d="M223.5 420q-16.5 133 24.5 287q39 150 125 279.5t199.5 227t245.5 153.5t265 56q182 0 302 -95t161 -259l94 346h818l-23 -82h-731l-143 -536h624l-24 -86h-625l-166 -625h731l-20 -86h-817l88 340q-72 -92 -156 -160q-115 -96 -242 -147t-258 -51q-129 0 -230 55 t-163.5 152.5t-79 230.5zM312.5 457.5q11.5 -115.5 63.5 -201.5t140 -136t205 -50q113 0 222.5 45t204.5 122.5t170 183t116 228.5l30 113q23 123 4.5 225.5t-71.5 179.5q-51 80 -138.5 124t-199.5 44q-115 0 -229.5 -49t-212 -134t-172 -199.5t-109.5 -245.5 q-35 -134 -23.5 -249.5z" />
<glyph unicode="&#x153;" horiz-adv-x="1802" d="M164 302q-12 95 16 204q29 111 93.5 207t148.5 167.5t183.5 113.5t197.5 42q74 0 134 -23.5t105 -65.5t74 -101.5t37 -128.5q43 70 96.5 129t113.5 102t123.5 66.5t127.5 23.5q86 0 148.5 -40t98 -109.5t42 -163.5t-22.5 -205l-14 -49h-723q-18 -86 -10 -159.5t39.5 -128 t84 -86t119.5 -31.5q33 0 76 9t86 21.5t83 27.5t69 28l14 -76q-59 -29 -140 -54.5t-155 -37.5h-2q-12 -2 -26 -2h-27q-133 0 -216 89t-94 230q-47 -72 -107 -130t-128 -101t-141.5 -66.5t-147.5 -23.5q-98 0 -175 41.5t-123 113.5t-58 167zM251 335q9 -81 47 -140.5 t100.5 -94t144.5 -34.5q80 0 159.5 34.5t148.5 94t121 140.5t77 171q25 92 15.5 173t-45.5 141.5t-97.5 95t-141.5 34.5q-82 0 -163.5 -34.5t-151.5 -95t-122 -141.5t-77 -173q-24 -90 -15 -171zM1165 555h641q16 82 8 154.5t-36.5 126t-75.5 84t-111 30.5 q-61 0 -124.5 -30.5t-121 -84t-104.5 -126t-76 -154.5z" />
<glyph unicode="&#x178;" horiz-adv-x="1394" d="M451 1415h116l318 -692l698 692h115l-789 -774l-168 -641h-88l168 641zM907 1542q4 23 26.5 39t47.5 16q23 0 36 -16t9 -39q-6 -23 -29.5 -39t-46.5 -16q-25 0 -37 16t-6 39zM1182 1542q4 23 26.5 39t46.5 16q23 0 36 -16t9 -39q-6 -23 -29.5 -39t-45.5 -16q-25 0 -37 16 t-6 39z" />
<glyph unicode="&#x2c6;" horiz-adv-x="548" d="M375 1163l276 217l162 -219l-65 -51l-123 170l-215 -170z" />
<glyph unicode="&#x2da;" horiz-adv-x="1705" />
<glyph unicode="&#x2dc;" horiz-adv-x="684" d="M457 1221l47 104q23 -41 67.5 -52t92.5 15h2q66 37 132 34t111 -42l-47 -106l-2 2q-18 43 -66.5 54t-95.5 -16h-2q-63 -37 -127.5 -33.5t-111.5 40.5z" />
<glyph unicode="&#x2000;" horiz-adv-x="884" />
<glyph unicode="&#x2001;" horiz-adv-x="1771" />
<glyph unicode="&#x2002;" horiz-adv-x="884" />
<glyph unicode="&#x2003;" horiz-adv-x="1771" />
<glyph unicode="&#x2004;" horiz-adv-x="589" />
<glyph unicode="&#x2005;" horiz-adv-x="442" />
<glyph unicode="&#x2006;" horiz-adv-x="294" />
<glyph unicode="&#x2007;" horiz-adv-x="294" />
<glyph unicode="&#x2008;" horiz-adv-x="221" />
<glyph unicode="&#x2009;" horiz-adv-x="354" />
<glyph unicode="&#x200a;" horiz-adv-x="98" />
<glyph unicode="&#x2010;" horiz-adv-x="862" d="M233 559l23 86h707l-23 -86h-707z" />
<glyph unicode="&#x2011;" horiz-adv-x="862" d="M233 559l23 86h707l-23 -86h-707z" />
<glyph unicode="&#x2012;" horiz-adv-x="862" d="M233 559l23 86h707l-23 -86h-707z" />
<glyph unicode="&#x2013;" horiz-adv-x="851" d="M233 559l23 86h707l-23 -86h-707z" />
<glyph unicode="&#x2014;" horiz-adv-x="1089" d="M233 559l23 86h940l-22 -86h-941z" />
<glyph unicode="&#x2018;" horiz-adv-x="307" d="M393 1214l146 199l14 -8l-59 -152l22 -116l-98 -41z" />
<glyph unicode="&#x2019;" horiz-adv-x="325" d="M373 1139l102 137l21 129l102 10l-20 -129l-195 -160z" />
<glyph unicode="&#x201a;" horiz-adv-x="352" d="M43 -129l117 129l33 131h98l-33 -131l-209 -141z" />
<glyph unicode="&#x201c;" horiz-adv-x="446" d="M414 1286l49 129l94 -10l-49 -129l29 -137l-15 -13zM563 1286l49 129l95 -10l-50 -129l29 -137l-14 -13z" />
<glyph unicode="&#x201d;" horiz-adv-x="485" d="M373 1139l102 137l21 129l102 10l-20 -129l-195 -160zM522 1139l103 137l20 129l103 10l-21 -129l-195 -160z" />
<glyph unicode="&#x201e;" horiz-adv-x="473" d="M23 -125l112 131l31 129h100l-35 -129l-200 -143zM174 -127l113 131l35 129h96l-35 -131l-205 -143z" />
<glyph unicode="&#x2022;" horiz-adv-x="428" d="M299 786q14 51 62.5 90t99.5 39q49 0 78.5 -38.5t15.5 -90.5q-6 -23 -22.5 -45t-40 -39.5t-49 -27.5t-50.5 -10q-51 0 -78.5 37.5t-15.5 84.5z" />
<glyph unicode="&#x2026;" horiz-adv-x="890" d="M88 0l33 131h131l-33 -131h-131zM385 0l33 131h131l-33 -131h-131zM682 0l33 131h131l-33 -131h-131z" />
<glyph unicode="&#x202f;" horiz-adv-x="354" />
<glyph unicode="&#x2039;" horiz-adv-x="720" d="M231 508l633 504l47 -60l-559 -444l324 -434l-78 -64z" />
<glyph unicode="&#x203a;" horiz-adv-x="702" d="M115 74l557 434l-322 444l80 60l363 -504l-633 -498z" />
<glyph unicode="&#x205f;" horiz-adv-x="442" />
<glyph unicode="&#x20ac;" horiz-adv-x="1525" d="M223 535l25 88h205q4 18 7 38.5t7 38.5q10 33 20 62l21 55h-209l25 86h227q61 113 149 208t192.5 165t218.5 108.5t226 38.5q150 0 260.5 -62.5t178.5 -164.5l-80 -63q-59 94 -153.5 148t-229.5 54q-96 0 -193.5 -31.5t-185.5 -89t-164 -137.5t-131 -174h702l-24 -86 h-721l-21 -55q-10 -29 -20 -62q-4 -18 -8 -38.5t-8 -38.5h727l-25 -88h-706q-2 -100 28.5 -185.5t89 -148t140 -97t182.5 -34.5q135 0 258 55t233 154l45 -70q-123 -102 -267 -164.5t-294 -62.5q-121 0 -217 42t-161.5 115.5t-99.5 175t-30 220.5h-219z" />
<glyph unicode="&#x2122;" horiz-adv-x="854" d="M420 1339l16 60h307l-16 -60h-119l-96 -356h-66l97 356h-123zM670 983l112 416h54l61 -195q41 53 83 101l83 94h51l-113 -416h-61l76 283l-68 -76q-35 -39 -59 -72h-33l-47 148l-76 -283h-63z" />
<glyph unicode="&#xe000;" horiz-adv-x="1025" d="M0 1025h1025v-1025h-1025v1025z" />
<glyph unicode="&#xfb01;" horiz-adv-x="1034" d="M233 0l242 913h-156l25 88h152l4 15q2 4 3 11t3 13q2 8 2 15l8 24q23 70 64 132.5t94 109.5t113.5 74.5t119.5 27.5h50q24 0 47 -4l-48 -84q-12 4 -32 4h-39q-47 -2 -92 -24.5t-84 -61.5t-70 -90t-47 -108l-12 -54h268l-266 -1001h-84l241 913h-184l-242 -913h-80z" />
<glyph unicode="&#xfb02;" horiz-adv-x="1003" d="M233 0l242 913h-156l25 88h152l4 15q2 4 3 11t3 13q2 8 2 15l8 24q23 72 65 134.5t94 108.5t111.5 72.5t120.5 28.5h11h88l-379 -1423h-88l241 913h-225l-242 -913h-80zM580 1001h225l90 338h-10q-47 -2 -92 -24.5t-84 -61.5t-70 -90t-47 -108z" />
<glyph unicode="&#xfb03;" horiz-adv-x="1691" d="M1474 0l270 1024h84l-270 -1024h-84zM1812 1331q4 23 26.5 39t47.5 16q23 0 36 -16q10 -13 10 -29q0 -5 -1 -10q-6 -23 -29.5 -39t-46.5 -16q-25 0 -37 16q-8 11 -8 25q0 6 2 14zM905 0l91 340l38 148l40 152l38 144l35 129h-156l25 88h152l4 15q2 4 3 11t3 13q2 8 2 15 l8 24q23 70 64 132.5t94 109.5t113.5 74.5t119.5 27.5h50q24 0 47 -4l-48 -84q-12 4 -32 4h-39q-47 -2 -92 -24.5t-84 -61.5t-70 -90t-47 -108l-12 -54h270l-25 -88h-270l-242 -913h-80zM233 0l91 340l38 148l40 152l38 144l35 129h-156l25 88h152l4 15q2 4 3 11t3 13 q2 8 2 15l8 24q23 70 64 132.5t94 109.5t113.5 74.5t119.5 27.5h50q24 0 47 -4l-48 -84q-12 4 -32 4h-39q-47 -2 -92 -24.5t-84 -61.5t-70 -90t-47 -108l-12 -54h270l-25 -88h-270l-242 -913h-80z" />
<glyph unicode="&#xfb04;" horiz-adv-x="1675" d="M1478 0l408 1536h86l-408 -1536h-86zM905 0l91 340l38 148l40 152l38 144l35 129h-156l25 88h152l4 15q2 4 3 11t3 13q2 8 2 15l8 24q23 70 64 132.5t94 109.5t113.5 74.5t119.5 27.5h50q24 0 47 -4l-48 -84q-12 4 -32 4h-39q-47 -2 -92 -24.5t-84 -61.5t-70 -90 t-47 -108l-12 -54h270l-25 -88h-270l-242 -913h-80zM233 0l91 340l38 148l40 152l38 144l35 129h-156l25 88h152l4 15q2 4 3 11t3 13q2 8 2 15l8 24q23 70 64 132.5t94 109.5t113.5 74.5t119.5 27.5h50q24 0 47 -4l-48 -84q-12 4 -32 4h-39q-47 -2 -92 -24.5t-84 -61.5 t-70 -90t-47 -108l-12 -54h270l-25 -88h-270l-242 -913h-80z" />
</font>
</defs>
</svg>
