<?xml version="1.0" standalone="no"?>
<!DOCTYPE svg PUBLIC "-//W3C//DTD SVG 1.1//EN" "http://www.w3.org/Graphics/SVG/1.1/DTD/svg11.dtd" >
<svg xmlns="http://www.w3.org/2000/svg">
<metadata>
This is a custom SVG webfont generated by Font Squirrel.
Copyright   : Copyright c 2007 by La Tipomatika All rights reserved
Designer    : La Tipomatika Digital Type Foundry
Foundry     : La Tipomatika
Foundry URL : httptipomatikaconr
</metadata>
<defs>
<font id="webfontHk26jRqZ" horiz-adv-x="1220" >
<font-face units-per-em="2048" ascent="1638" descent="-410" />
<missing-glyph horiz-adv-x="526" />
<glyph unicode=" "  horiz-adv-x="526" />
<glyph unicode="&#x09;" horiz-adv-x="526" />
<glyph unicode="&#xa0;" horiz-adv-x="526" />
<glyph unicode="!" horiz-adv-x="360" d="M115 31q0 20 14 33.5t35 13.5q23 0 34 -13.5t13 -33.5q0 -20 -13.5 -34.5t-33.5 -14.5t-34.5 14.5t-14.5 34.5zM127 203v1212h74v-1212h-74z" />
<glyph unicode="&#x22;" horiz-adv-x="444" d="M74 1415h98l14 -129l-77 -164l-13 13zM227 1415h99l14 -129l-78 -164l-12 13z" />
<glyph unicode="#" horiz-adv-x="1462" d="M66 453l73 90h217l107 293h-397l71 90h359l145 393h92l-143 -393h491l146 393h92l-143 -393h237l-72 -90h-198l-109 -293h381l-74 -90h-340l-161 -453h-95l164 453h-493l-162 -453h-94l164 453h-258zM449 543h493l107 293h-492z" />
<glyph unicode="$" horiz-adv-x="954" d="M72 1042q0 74 26.5 136.5t74.5 111.5t114.5 82t144.5 45v92h86v-88q113 0 202 -43t154 -114l-69 -56q-49 59 -124 96t-163 37v-606q80 -16 147.5 -51t116.5 -85t77 -112.5t28 -132.5q0 -72 -29 -135t-78 -112.5t-116.5 -81t-145.5 -39.5v-121h-86v117q-8 2 -22 2 q-109 10 -196 62t-140 128l69 55q41 -63 118 -112t171 -49v594q-80 14 -145.5 48.5t-113.5 86t-74.5 113.5t-26.5 132zM162 1051q0 -53 20.5 -102.5t56 -89.5t85 -68.5t108.5 -40.5v585q-55 -10 -104 -36.5t-86 -64.5t-58.5 -85t-21.5 -98zM518 72q55 8 105.5 31.5 t88.5 59.5t60.5 83t22.5 102t-20.5 104.5t-57.5 90.5t-88 68.5t-111 39.5v-579z" />
<glyph unicode="%" horiz-adv-x="1583" d="M100 1036q0 70 23.5 132.5t65.5 108.5t97.5 72.5t119.5 26.5q61 0 116.5 -26.5t95 -72.5t63.5 -108.5t24 -132.5t-24 -132t-63.5 -108t-95 -73t-116.5 -27q-63 0 -119 27t-98 73t-65.5 108t-23.5 132zM186 1036q0 -51 17.5 -97t47.5 -81t69.5 -55.5t85.5 -20.5 q43 0 81.5 20.5t67.5 55.5t46 81t17 97q0 53 -17 100.5t-46 81t-67.5 53t-81.5 19.5q-45 0 -85 -19.5t-70 -53t-47.5 -81t-17.5 -100.5zM346 2l817 1413h103l-822 -1413h-98zM889 346q0 70 23.5 132.5t64.5 107.5t95 71.5t116 26.5q63 0 118.5 -26.5t96.5 -71.5t65.5 -107.5 t24.5 -132.5t-24.5 -132t-65.5 -108.5t-96.5 -73t-118.5 -26.5q-61 0 -115.5 26.5t-95.5 73t-64.5 108.5t-23.5 132zM975 346q0 -53 16.5 -99t46 -81t68.5 -54.5t82 -19.5q45 0 85 19.5t69.5 54.5t47 81t17.5 99t-17.5 100.5t-47 81t-69.5 53t-85 19.5q-43 0 -82 -19.5 t-68.5 -53t-46 -81t-16.5 -100.5z" />
<glyph unicode="&#x26;" horiz-adv-x="1222" d="M84 385q0 117 79 218.5t243 176.5l53 25l-37 43q-51 55 -82 97t-47.5 76t-21.5 62.5t-5 55.5q0 53 22.5 104t64.5 91t100.5 64.5t132.5 24.5q66 0 121 -21.5t95 -58t61.5 -86t21.5 -104.5q0 -90 -47 -169t-179 -159l-63 -39l326 -399l36 53l53 78q28 43 38 92l69 -14 q-25 -78 -67.5 -147.5t-77.5 -120.5l42 -62q17 -25 35 -46l34 -45l42 -56v-119l-45 48q-16 17 -31 36l-36 41l-58 63l-32 37l-31 -43q-72 -98 -173.5 -141t-211.5 -41q-92 0 -170 30.5t-134.5 84t-88 123t-31.5 147.5zM166 381q0 -57 27.5 -112.5t73.5 -98.5t108.5 -69.5 t132.5 -26.5q92 -2 184 48t158 130l24 31l-370 462q-178 -92 -258 -182t-80 -182zM350 1139q2 -47 22.5 -89t59.5 -85l100 -115l46 24q55 31 97 68t69.5 75t42 73.5t14.5 60.5q0 90 -62.5 146.5t-156.5 56.5q-43 0 -85 -17.5t-74 -47t-52.5 -68.5t-20.5 -82z" />
<glyph unicode="'" horiz-adv-x="247" d="M45 1139l66 137l-15 129l99 10l14 -129l-152 -160z" />
<glyph unicode="(" horiz-adv-x="532" d="M94 592q0 137 17.5 264t48 235.5t72.5 193.5t92 138l38 -100q-39 -47 -69.5 -122t-53 -170t-34.5 -206.5t-12 -232.5q0 -133 14 -254t39.5 -221.5t62.5 -175t80 -115.5l-51 -86q-53 51 -98 137t-77 196.5t-50.5 242t-18.5 276.5z" />
<glyph unicode=")" horiz-adv-x="503" d="M119 -174q43 41 80 115.5t62.5 175t39.5 221.5t14 254q0 121 -12 232.5t-34.5 206.5t-53.5 170t-70 122l39 100q49 -53 91 -138t73 -193.5t48.5 -235.5t17.5 -264q0 -145 -18.5 -276.5t-50.5 -242t-77 -196.5t-98 -137z" />
<glyph unicode="*" horiz-adv-x="964" d="M133 1106v84h248l-176 176l59 61l176 -176v250h86v-250l176 176l62 -59l-176 -176h250v-86h-250l176 -178l-59 -60l-179 176v-249h-86v247l-176 -174l-61 60l176 178h-246z" />
<glyph unicode="+" horiz-adv-x="925" d="M113 559v86h309v309h86v-309h311v-86h-311v-311h-86v311h-309z" />
<glyph unicode="," horiz-adv-x="354" d="M78 -129l82 129l-2 131h98l2 -131l-170 -141z" />
<glyph unicode="-" horiz-adv-x="862" d="M84 559v86h707v-86h-707z" />
<glyph unicode="." horiz-adv-x="296" d="M86 131h131l2 -131h-131z" />
<glyph unicode="/" horiz-adv-x="774" d="M92 0l516 1415h92l-514 -1415h-94z" />
<glyph unicode="0" horiz-adv-x="1200" d="M86 705q0 150 41 280.5t111.5 228t166 153.5t201.5 56t200.5 -56t165 -153.5t110.5 -228.5t40 -280q0 -150 -40 -281t-110.5 -229.5t-164.5 -155.5t-201 -57q-106 0 -201.5 57t-166 155.5t-111.5 229.5t-41 281zM172 705q0 -133 35 -249t93 -202t137 -136t169 -50t169 50 t137.5 136t92 201.5t33.5 249.5q0 131 -33.5 246.5t-92 201.5t-137.5 135t-169 49t-169 -49t-137 -135t-93 -201.5t-35 -246.5z" />
<glyph unicode="1" horiz-adv-x="626" d="M80 1036v109l326 270h86l2 -1415h-86l-2 1305z" />
<glyph unicode="2" horiz-adv-x="972" d="M86 0v84l592 666q43 47 67.5 106t24.5 127q0 74 -27.5 139.5t-77 112.5t-115 74.5t-140.5 27.5q-74 0 -139.5 -27.5t-112.5 -74.5l-62 61q61 59 141 93t173 34q92 0 173 -34.5t141 -94t95 -139.5t35 -172q0 -86 -30.5 -160.5t-86.5 -134.5l-536 -604h714v-84h-792h-37z " />
<glyph unicode="3" horiz-adv-x="882" d="M27 178l61 58q20 -31 55 -57.5t76 -48t85 -34t85 -12.5q70 0 132.5 21.5t108.5 60.5t73.5 89t27.5 110q0 55 -24.5 110t-67.5 99t-101.5 73t-123.5 33h-115v86h51q20 0 38 1t22 1q66 4 123 23.5t100 54.5t67.5 82t24.5 106q0 63 -26.5 118.5t-72.5 96.5t-107.5 64.5 t-131.5 23.5q-82 0 -136 -25.5t-101 -78.5l-62 61q59 63 130 95t169 32q88 0 166 -30.5t135 -83t91 -123t34 -150.5q0 -111 -64.5 -185.5t-166.5 -121.5q51 -25 95 -63.5t75.5 -88t49 -103.5t17.5 -107q0 -76 -34.5 -142.5t-93 -117t-136.5 -79t-166 -28.5 q-49 0 -102.5 14.5t-101.5 39t-89.5 57t-68.5 69.5z" />
<glyph unicode="4" horiz-adv-x="968" d="M82 518v82v2h2l467 813l74 -43l-443 -770h477l-2 318h84l2 -318h146v-84h-146v-518h-84v518h-577z" />
<glyph unicode="5" horiz-adv-x="1032" d="M133 721l49 694h723v-86h-637l-49 -459q59 66 148.5 105t185.5 39q94 0 170 -40t129 -107.5t81 -160t28 -196.5t-35 -197.5t-96.5 -163t-144.5 -109.5t-177 -40q-111 0 -207 54.5t-156 146.5l60 59q47 -80 126 -127t175 -47q76 0 143.5 33t117.5 90t78.5 135t28.5 166 t-21.5 165t-62 133t-101 89t-136.5 33q-106 0 -198.5 -57.5t-135.5 -151.5h-86z" />
<glyph unicode="6" horiz-adv-x="1036" d="M111 562v163q0 90 5 173t21 161q14 76 53 141.5t94.5 114.5t125 78.5t149.5 31.5q111 0 206 -46t161 -132l-86 -53q-47 66 -121 105.5t-158 39.5q-63 0 -120.5 -23.5t-104.5 -64.5t-79 -97t-44 -122q-14 -76 -20.5 -158.5t-6.5 -173.5q0 -16 1 -30.5t1 -30.5 q53 86 142.5 138t197.5 57q88 0 168 -31t139.5 -85t95.5 -129t38 -165v-18q0 -90 -34 -167t-91.5 -134.5t-136 -89t-166.5 -31.5q-86 0 -161 31.5t-132.5 86t-91 129t-37.5 160.5v6q-8 80 -8 165zM203 399q0 -70 27.5 -130t74.5 -105t108.5 -71.5t131.5 -26.5t132 26.5 t108 72.5t73 106.5t27 129.5v19q-2 70 -30 130t-74 104t-108.5 70t-131.5 26q-72 0 -134.5 -29t-107.5 -77t-70.5 -111.5t-25.5 -133.5z" />
<glyph unicode="7" horiz-adv-x="907" d="M84 1329v86h768l-657 -1415h-103l617 1329h-625z" />
<glyph unicode="8" horiz-adv-x="940" d="M66 391q0 125 64.5 223.5t164.5 149.5q-82 45 -133 126t-51 179q0 74 28.5 138.5t77.5 112.5t115.5 75.5t140.5 27.5q78 0 145.5 -27.5t116.5 -75.5t78 -112.5t29 -138.5q0 -98 -50.5 -179t-136.5 -126q106 -51 169 -149.5t63 -223.5q0 -84 -32 -158.5t-88 -130t-132 -88 t-162 -32.5q-84 0 -157.5 32.5t-129 88t-88 130t-32.5 158.5zM152 391q0 -66 25.5 -124t69.5 -103t102.5 -70.5t123.5 -25.5q68 0 128.5 25.5t104.5 70.5t69.5 103.5t25.5 123.5q0 68 -25.5 127.5t-69.5 104.5t-104.5 70.5t-128.5 25.5q-66 0 -124 -25.5t-102 -70.5 t-69.5 -104.5t-25.5 -127.5zM197 1069q0 -55 21.5 -103t59 -84t88 -57.5t107.5 -21.5t108.5 21.5t90.5 57.5t60.5 84t21.5 103t-21.5 104.5t-60.5 86t-90.5 57t-108.5 20.5t-107.5 -20.5t-88 -57t-59 -86t-21.5 -104.5z" />
<glyph unicode="9" horiz-adv-x="1001" d="M78 985v14q0 88 33.5 165t91 135.5t135.5 92t166 33.5t166 -32.5t135 -88t91 -130t38 -160.5v-6q6 -84 6 -172v-172q0 -82 -5 -161t-20 -153q-16 -80 -57 -147.5t-100.5 -115.5t-134 -74.5t-156.5 -26.5q-102 0 -193.5 47t-150.5 121l84 67q49 -70 121.5 -108.5 t152.5 -38.5q68 0 127.5 22.5t106.5 62.5t78.5 95t46.5 119q10 76 16 156.5t6 166.5v70q-57 -86 -151.5 -136t-210.5 -50q-84 0 -160 31.5t-133 86t-92 128t-37 159.5zM160 989q4 -68 31.5 -127t73.5 -103t106.5 -69.5t128.5 -25.5q74 0 137 26.5t110.5 72.5t74 108.5 t26.5 134.5q0 68 -27.5 128t-76 105t-110 71.5t-128.5 26.5q-74 0 -136.5 -28.5t-109.5 -75.5t-73.5 -110.5t-26.5 -133.5z" />
<glyph unicode=":" horiz-adv-x="372" d="M123 131h131l2 -131h-131zM123 893v131h131v-131h-131z" />
<glyph unicode=";" horiz-adv-x="346" d="M55 -129l82 129l-2 131h98l3 -131l-170 -141zM123 893v131h131v-131h-131z" />
<glyph unicode="&#x3c;" horiz-adv-x="675" d="M57 508l498 504l63 -60l-440 -444l440 -434l-61 -64z" />
<glyph unicode="=" horiz-adv-x="901" d="M141 410v90h686v-90h-686zM141 807v90h686v-90h-686z" />
<glyph unicode="&#x3e;" horiz-adv-x="688" d="M78 74l440 434l-440 444l63 60l498 -504l-500 -498z" />
<glyph unicode="?" horiz-adv-x="839" d="M76 1251q49 78 130 125t177 47q78 0 146.5 -30.5t118.5 -83t80 -123t30 -150.5q0 -76 -29 -144.5t-79 -120.5t-117.5 -83t-143.5 -31h-108l194 -657h-90l-188 657v84h192q59 2 111.5 26t90.5 63.5t60.5 93t22.5 112.5q0 63 -22.5 118.5t-62.5 96.5t-93.5 64.5 t-112.5 23.5q-80 0 -144.5 -41t-103.5 -106zM422 -197q0 25 16.5 39.5t38.5 14.5q53 0 53 -54q0 -25 -14 -42t-39 -17q-23 0 -39 17t-16 42z" />
<glyph unicode="@" horiz-adv-x="1636" d="M109 498q0 150 56 279.5t152.5 226t226.5 152.5t277 56q141 0 265 -50t215.5 -137t144.5 -205t53 -253q0 -92 -20.5 -171t-44.5 -138q-29 -68 -64 -125q-31 -43 -73 -68.5t-87 -25.5q-41 0 -72.5 16.5t-58 43t-45 57t-30.5 59.5q-16 -6 -48 -15.5t-69 -18.5t-74 -17 t-63 -10q-35 -4 -81 7t-87 43t-69 86t-28 138q0 47 13 107q18 98 58 161.5t92 101.5t111.5 52t119.5 14q37 0 85 -2t89 -4q49 -4 98 -6q-29 -125 -45 -207l-27 -133q-10 -51 -14 -74.5t-4 -31.5v-11q-4 -55 7 -103t32.5 -85t50.5 -57.5t59 -20.5q47 0 93 57v-2q27 47 49 107 q18 51 34.5 119.5t16.5 152.5q0 119 -44 221.5t-122 178t-184.5 118.5t-231.5 43q-129 0 -242.5 -49t-198.5 -134t-134 -199.5t-49 -243.5t49 -243t134 -198t198.5 -133t242.5 -49q37 0 81 5t91 22l4 -95q-84 -23 -176 -22q-147 0 -277 56.5t-226.5 152.5t-152.5 226.5 t-56 277.5zM596 436q0 -51 13.5 -86t34 -56.5t45 -31.5t46.5 -10q55 -2 113.5 9t89.5 26l48 235q24 119 50 236q-23 2 -65.5 2t-106.5 2q-43 0 -84 -10.5t-74.5 -36t-59 -71.5t-40.5 -116q-6 -27 -8 -49.5t-2 -42.5z" />
<glyph unicode="A" d="M66 0l520 1415h71l525 -1415h-90l-222 588h-497l-217 -588h-90zM403 674h437l-219 590z" />
<glyph unicode="B" horiz-adv-x="1048" d="M109 1415h86h366q78 -2 146.5 -30.5t119 -75.5t80 -109.5t29.5 -132.5q0 -104 -55.5 -187t-147.5 -130q106 -45 169 -139.5t63 -209.5q0 -80 -31 -151.5t-85 -125.5t-128 -86t-160 -34l-35 -4h-415zM195 86h329h37q66 2 124 28.5t101 69.5t68 98.5t25 118.5 q0 61 -25 115.5t-68 96.5t-101 68t-124 30h-366v-625zM195 797h366q61 2 113.5 23.5t91.5 57t61.5 85t22.5 104.5q0 51 -22.5 98t-61.5 84t-91 58.5t-114 25.5h-37h-329v-536z" />
<glyph unicode="C" horiz-adv-x="1208" d="M59 707q0 143 50.5 273t137.5 228.5t203.5 156.5t251.5 58q127 0 241 -52t198 -144l-58 -64v6q-76 78 -173 123t-208 45q-115 0 -215 -49t-175.5 -135t-120 -200.5t-44.5 -245.5q0 -129 42 -245t116 -203t175.5 -138t221.5 -51q111 0 205 44t172 122l58 -58 q-86 -92 -197 -144t-238 -52t-242.5 57t-204.5 155.5t-142.5 230.5t-53.5 282z" />
<glyph unicode="D" horiz-adv-x="1177" d="M76 1415h86h436q102 -2 192.5 -57t157 -150.5t105.5 -223.5t39 -273t-38 -273.5t-104.5 -223.5t-155.5 -151.5t-192 -58.5l2 -4h-526zM162 86h440v4q84 2 158 52.5t128 134t86 195.5t32 239q0 125 -32 237.5t-87.5 196.5t-129 133t-159.5 51h-436v-1243z" />
<glyph unicode="E" horiz-adv-x="993" d="M90 1415h817v-82h-731v-536h625v-86h-625v-625h731l2 -86h-817z" />
<glyph unicode="F" horiz-adv-x="997" d="M98 1415h817v-80h-731v-538h625v-86h-625l2 -711h-86z" />
<glyph unicode="G" horiz-adv-x="1236" d="M51 700q0 150 51.5 281t139.5 229.5t205.5 155.5t250.5 57q129 0 241 -52t200 -144l-58 -60q-76 78 -174 123t-209 45q-117 0 -218 -49t-178 -135t-121 -201.5t-44 -249.5q0 -131 44 -246.5t121 -202.5t178.5 -137.5t217.5 -50.5q102 0 193.5 40t161.5 106v405h-391v82 h477v-516v-6q-88 -92 -200 -142t-241 -50q-133 0 -250.5 56t-205.5 154.5t-139.5 229.5t-51.5 278z" />
<glyph unicode="H" horiz-adv-x="1142" d="M100 1415h86v-618h781v618h86l2 -1415h-86l-2 711h-781l2 -711h-86z" />
<glyph unicode="I" horiz-adv-x="282" d="M100 1415h86l2 -1415h-86z" />
<glyph unicode="J" horiz-adv-x="624" d="M70 68l55 59q23 -27 52.5 -43t58.5 -16q37 0 68.5 20.5t55 56t38 86t14.5 109.5v1075h88v-1071q0 -74 -21.5 -139.5t-57.5 -115.5t-84 -78.5t-101 -28.5q-47 0 -89 23.5t-77 62.5z" />
<glyph unicode="K" horiz-adv-x="1193" d="M90 1415h86v-770l660 770h116l-528 -614l686 -801h-111l-630 735l-193 -223l2 -512h-86z" />
<glyph unicode="L" horiz-adv-x="927" d="M90 1415h86v-1329h690l2 -86h-776z" />
<glyph unicode="M" horiz-adv-x="1275" d="M70 1415h86l469 -790l458 790h88l3 -1415h-89l-2 1249l-434 -747h-53l-440 747l2 -1249h-86z" />
<glyph unicode="N" horiz-adv-x="1099" d="M96 1415h84l733 -1243v1243h86l2 -1415h-86l-735 1249l2 -1249h-84z" />
<glyph unicode="O" horiz-adv-x="1413" d="M59 707q0 150 50.5 279.5t138.5 227t204.5 153.5t249.5 56q137 0 255 -56t204 -152.5t135.5 -227.5t49.5 -280q0 -160 -51.5 -294t-145.5 -233q-88 -96 -201.5 -147t-245.5 -51q-129 0 -245.5 55t-204.5 152.5t-140.5 230.5t-52.5 287zM147 707q0 -133 43 -249t118 -202 t176.5 -136t217.5 -50q119 0 222.5 50t178.5 136t118 201.5t43 249.5q0 139 -47.5 256.5t-131.5 203.5q-72 80 -171 124t-212 44q-115 0 -216 -49t-177 -134t-119 -199.5t-43 -245.5z" />
<glyph unicode="P" horiz-adv-x="983" d="M109 1415h407q82 0 155.5 -27.5t127 -74.5t85 -110.5t31.5 -135.5q0 -76 -31.5 -141.5t-85 -113.5t-127 -75.5t-155.5 -27.5h-321l2 -709h-86zM195 795h321q63 0 119.5 20.5t99.5 57t67.5 86t24.5 108.5q0 55 -24.5 103.5t-67.5 84t-99 57t-120 21.5h-6h-315v-538z" />
<glyph unicode="Q" horiz-adv-x="1361" d="M76 754q0 143 48 265t130 212t189.5 141t226.5 51q121 0 229.5 -51t190 -142t130 -213t48.5 -263t-52.5 -266.5t-138.5 -215.5q-135 -150 -329 -178q8 -66 33.5 -108.5t60.5 -42.5q23 0 38 13t25 34l58 -49q-27 -35 -56.5 -56.5t-64.5 -21.5q-63 0 -111.5 65.5 t-60.5 157.5q-119 2 -226.5 55.5t-189.5 142.5t-130 210t-48 260zM154 754q0 -121 39.5 -227.5t109.5 -186.5t163 -128t200 -50q-4 37 -30 62q-24 24 -61 24h-6v74h7q67 0 113 -42q48 -44 59 -114q90 18 169.5 71.5t139 131t94.5 176t35 209.5q0 129 -44 241.5t-122 194.5 q-70 74 -158 117t-192 43t-198.5 -46.5t-165 -127t-111.5 -189t-41 -233.5z" />
<glyph unicode="R" horiz-adv-x="970" d="M88 1415h406q84 0 156.5 -27.5t126.5 -74.5t86 -110.5t32 -137.5t-32 -138.5t-86 -112.5t-126.5 -75.5t-156.5 -27.5h-203l627 -711h-111l-629 711h-4l2 -711h-86zM174 797h320q63 0 120.5 20.5t100.5 56t68.5 85t25.5 106.5q0 55 -25.5 104.5t-68.5 86t-100.5 58 t-120.5 21.5h-5h-315v-538z" />
<glyph unicode="S" horiz-adv-x="993" d="M90 1044q0 80 34 150t93 120t139 78.5t170 28.5q117 0 209 -41t158 -116l-70 -56q-51 61 -128 97t-169 36q-68 0 -130 -22.5t-110 -61t-77 -91t-29 -113.5q0 -59 24.5 -113.5t68.5 -96.5t104.5 -70t130.5 -34q86 -12 158.5 -46t126 -85t83 -116.5t29.5 -137.5 q0 -78 -33.5 -146.5t-91 -118.5t-135.5 -78.5t-166 -28.5q-125 0 -226 53t-161 139l70 55q49 -74 131 -117.5t190 -43.5q66 0 126.5 21.5t105.5 58t71.5 88t26.5 110.5t-23.5 111.5t-65.5 94.5t-98.5 68.5t-121.5 34.5h-6q-88 8 -163 42t-129 86.5t-85 119.5t-31 141z" />
<glyph unicode="T" horiz-adv-x="1177" d="M86 1333v82h549h461v-82h-461l2 -1333h-86l-2 1333h-463z" />
<glyph unicode="U" horiz-adv-x="1224" d="M88 354v1061h92v-1061q4 -59 40 -111.5t94.5 -90t136 -60t165.5 -22.5q84 0 160 22.5t134.5 60t93 90t38.5 111.5v1061h86v-1061q-4 -76 -45 -143.5t-110.5 -118.5t-161.5 -80.5t-195 -29.5q-106 0 -200 29.5t-165 80.5t-114 118.5t-49 143.5z" />
<glyph unicode="V" horiz-adv-x="1308" d="M88 1415h90l477 -1288l478 1288h90l-521 -1415h-90z" />
<glyph unicode="W" horiz-adv-x="1873" d="M94 1415h90l480 -1288l221 604l-252 684h90l207 -563l270 -725l475 1288h92l-518 -1415h-94l-225 604l-219 -604h-93z" />
<glyph unicode="X" horiz-adv-x="1107" d="M80 0l420 725l-404 690h97l368 -618l365 618h100l-414 -704l416 -711h-100l-379 639l-373 -639h-96z" />
<glyph unicode="Y" horiz-adv-x="1394" d="M72 1415h116l504 -692l512 692h115l-580 -774l2 -641h-88l-2 641z" />
<glyph unicode="Z" horiz-adv-x="1122" d="M72 0l827 1329h-770v86h850h72l-826 -1329h754l2 -86h-850h-59z" />
<glyph unicode="[" horiz-adv-x="430" d="M86 684v86h41q39 0 64.5 26.5t25.5 65.5v461v4v6q6 37 42 59.5t81 22.5v-88q-35 0 -35 -4v-485q-10 -27 -33.5 -47.5t-54.5 -20.5v-86q31 0 54.5 -17.5t33.5 -48.5v-522q0 -10 35 -10l2 -86q-18 0 -39.5 7t-41 19.5t-32 30t-12.5 39.5v496q0 41 -25.5 66.5t-64.5 25.5 h-41z" />
<glyph unicode="\" horiz-adv-x="759" d="M90 1415h92l520 -1415h-94z" />
<glyph unicode="]" horiz-adv-x="374" d="M57 86q16 0 26.5 3t14.5 7v522q6 31 29 48.5t53 17.5l4 86q-35 0 -57.5 20.5t-28.5 47.5v485q-6 4 -41 4v88q53 0 85 -23.5t38 -58.5l4 -6v-4v-461q0 -39 23.5 -65.5t60.5 -26.5h43v-86h-43q-37 0 -60.5 -25.5t-23.5 -66.5v-496q0 -41 -41 -68.5t-84 -27.5z" />
<glyph unicode="^" horiz-adv-x="1128" d="M63 918l504 497l498 -500l-64 -61l-434 440l-444 -440z" />
<glyph unicode="_" horiz-adv-x="1050" d="M84 86h860l2 -86h-860z" />
<glyph unicode="`" horiz-adv-x="417" d="M63 1311h136l135 -178h-47z" />
<glyph unicode="a" horiz-adv-x="835" d="M59 289q0 63 27 120.5t71 100.5t104.5 67.5t127.5 24.5h246v43v21q0 57 -15.5 109t-44 90t-67.5 61.5t-84 25.5h-2q-33 0 -55.5 -2t-41 -7t-37.5 -11l-46 -14l-21 79l50 18q22 7 43.5 12t47 7t60.5 2h2q61 -2 113.5 -29.5t92.5 -74.5t63.5 -109.5t27.5 -134.5v-22 q-2 -182 -2 -326q0 -61 -1 -120.5t-1 -107.5v-79v-33h-82v84q-47 -47 -110.5 -74.5t-135.5 -27.5q-68 0 -128 24.5t-104 66.5t-71 98.5t-27 117.5zM145 289q0 -47 19.5 -87t52.5 -70t78 -47t94 -17q51 0 95 17t78 47t53.5 71t19.5 88v223q-90 0 -139.5 1t-71.5 1h-28h-7 q-49 0 -94 -18.5t-78 -49t-52.5 -71.5t-19.5 -88z" />
<glyph unicode="b" horiz-adv-x="1071" d="M125 0v193v1222h86v-459q53 39 132 59.5t171 20.5q102 0 191.5 -42t156 -114.5t105.5 -168t39 -201.5q0 -109 -39 -205t-105.5 -167.5t-156 -113.5t-191.5 -44q-96 4 -176 25.5t-133 55.5l2 -61h-82zM205 145q41 -23 90 -39q41 -16 97.5 -27t121.5 -13q82 2 155.5 37.5 t129 95t88.5 140.5t33 171q0 88 -33 168t-88.5 140.5t-129 96t-155.5 35.5q-59 0 -114.5 -12t-98.5 -29q-51 -18 -96 -39v-725z" />
<glyph unicode="c" horiz-adv-x="978" d="M47 508q0 109 39 205t105.5 167.5t155.5 113.5t190 42q106 0 196 -44t156 -115l-62 -64q-53 61 -127.5 99t-162.5 38q-84 0 -158 -34.5t-128 -94t-86 -140.5t-32 -173q0 -90 32 -171t86 -140.5t128 -94t158 -34.5t157.5 34.5t128.5 96.5l62 -60q-70 -72 -158 -114.5 t-190 -42.5q-100 0 -189.5 42t-156 113.5t-105.5 166.5t-39 204z" />
<glyph unicode="d" horiz-adv-x="1030" d="M41 512q0 109 39 203t105.5 164.5t156.5 112.5t193 42h4h-4q92 0 169.5 -19.5t135.5 -60.5v461h86v-1225v-190h-86v59q-53 -35 -133 -55t-172 -24q-102 2 -192.5 44t-157 113.5t-105.5 167.5t-39 207zM125 512q0 -90 31.5 -171t87 -141.5t130.5 -97t161 -39.5h4 q66 0 121 12.5t96 28.5q47 18 84 41v725q-43 20 -92 39q-41 14 -97.5 26.5t-115.5 12.5q-86 -2 -161 -38t-130.5 -94t-87 -137t-31.5 -167z" />
<glyph unicode="e" horiz-adv-x="933" d="M59 471v39q0 109 33 205t88.5 167.5t129 113.5t157.5 42q86 0 159.5 -35.5t128 -101t85 -157t30.5 -201.5v-49h-723q4 -86 34 -163t76 -135.5t107.5 -93t129.5 -34.5q43 0 87 7t84 19t74.5 28.5t57.5 33.5l34 -80q-49 -37 -127.5 -59.5t-158.5 -32.5h-2q-12 -2 -26 -2 h-28q-86 0 -160.5 37.5t-133 104t-94.5 156t-42 191.5zM147 578h641q-6 82 -33.5 150.5t-70.5 117.5t-98.5 76.5t-118.5 27.5q-61 0 -116.5 -27.5t-98.5 -76.5t-71 -117.5t-34 -150.5z" />
<glyph unicode="f" horiz-adv-x="671" d="M76 913v88h151q2 0 2 15q0 4 -1 11t-1 13v15v24q4 70 29 132.5t64.5 109.5t93 74.5t112.5 27.5h51q24 0 48 -4l-25 -84q-14 4 -35 4h-39q-45 -2 -84 -24.5t-68.5 -61.5t-46 -90t-16.5 -108v-54h271v-88h-271l2 -913h-80q-2 172 -2 340v573h-155z" />
<glyph unicode="g" horiz-adv-x="1128" d="M70 -82q0 92 58 167t155 116q-23 39 -23 96q0 35 12.5 64.5t30.5 46.5q-72 51 -111.5 121.5t-39.5 152.5q0 74 31.5 138.5t87 112.5t129 75.5t159.5 27.5q45 0 82 -6t72 -16h354l-84 -86h-129q53 -47 83 -108.5t30 -137.5q0 -74 -32 -137.5t-87 -110.5t-130 -74.5 t-159 -27.5q-51 0 -91 12t-77 12q-23 0 -45 -11t-22 -44q0 -43 23.5 -54t47.5 -11q18 0 37 3t47 3q86 0 161 -26t131 -69t88 -102t32 -127t-32 -127t-88 -103t-131 -71t-161 -27q-84 0 -158.5 27t-130 71t-88 103t-32.5 127zM152 -82q0 -49 26.5 -94t71.5 -79t104.5 -53.5 t124.5 -19.5q70 0 130.5 19.5t105.5 53.5t70.5 79t25.5 94t-25.5 93t-70.5 78t-105.5 54.5t-130.5 20.5q-66 0 -125 -20.5t-104 -54.5t-71.5 -78t-26.5 -93zM236 682q0 -55 25.5 -104.5t69.5 -85t102.5 -57t125.5 -21.5q70 0 129.5 21.5t103.5 57t69.5 85t25.5 104.5 q0 57 -25.5 107.5t-69.5 87t-103.5 57t-129.5 20.5q-68 0 -126 -20.5t-102 -57t-69.5 -87t-25.5 -107.5z" />
<glyph unicode="h" horiz-adv-x="931" d="M94 1419h86v-540q49 76 122 117.5t163 41.5q72 0 134.5 -28.5t108.5 -79.5t72.5 -119t28.5 -145l6 -660h-86v660q-2 61 -24.5 113t-59.5 91t-87 61.5t-105 22.5q-49 0 -95.5 -19.5t-83 -54t-61.5 -81.5t-33 -103l2 -696h-86z" />
<glyph unicode="i" horiz-adv-x="413" d="M158 1331q0 23 17.5 39t41.5 16q23 0 41 -16t18 -39t-18 -39t-41 -16q-25 0 -42 16t-17 39zM174 1024h84l2 -1024h-84z" />
<glyph unicode="j" horiz-adv-x="724" d="M106 -397l9 80q18 -2 35 -5q14 -2 29 -2h26q45 2 84 26t67.5 61.5t45 88t16.5 105.5v1069h86v-1089q-4 -70 -28.5 -131.5t-64.5 -107.5t-91.5 -73.5t-110.5 -30.5h-4q-27 0 -51.5 3.5t-47.5 5.5zM401 1321q0 25 15.5 40t42.5 15q20 0 36.5 -15t16.5 -40q0 -23 -16.5 -39 t-36.5 -16q-27 0 -42.5 16t-15.5 39z" />
<glyph unicode="k" horiz-adv-x="901" d="M125 0v1415h86v-731l405 340h132l-326 -270l432 -754h-100l-398 692l-145 -121l2 -571h-88z" />
<glyph unicode="l" horiz-adv-x="331" d="M133 1536h86l2 -1536h-86z" />
<glyph unicode="m" horiz-adv-x="1513" d="M84 924v100h86v-96v-54q49 76 122 118t159 42q109 0 193.5 -64.5t125.5 -162.5q20 61 55 105t78 72t90 41t90 13q72 0 134.5 -28.5t108.5 -78.5t72.5 -119t28.5 -146l5 -662h-86v662q-2 59 -24 111t-58.5 91t-85 61.5t-103.5 22.5q-51 0 -97 -20.5t-83 -55t-61.5 -80.5 t-32.5 -100v-692h-86v658q-2 61 -23.5 113t-58.5 90t-87 60.5t-106 22.5q-51 0 -96 -19.5t-82 -54t-60.5 -80.5t-31.5 -102l2 -692h-86z" />
<glyph unicode="n" horiz-adv-x="886" d="M80 1024h86v-145q49 78 122.5 119.5t162.5 41.5q72 0 134 -29.5t108 -79.5t74 -119t30 -146l6 -666h-86l-2 666q-2 61 -21.5 113t-53.5 91t-81 61.5t-102 22.5q-51 0 -100.5 -19.5t-89.5 -54t-66.5 -81.5t-34.5 -103l2 -696h-86z" />
<glyph unicode="o" horiz-adv-x="1050" d="M45 506q0 111 38 207t103.5 167.5t153.5 113.5t186 42t184.5 -42t151 -113.5t102 -168t37.5 -206.5q0 -109 -37.5 -204t-102 -167t-150.5 -113.5t-185 -41.5q-98 0 -186 41.5t-153.5 113.5t-103.5 167t-38 204zM131 506q0 -90 31 -171t85 -140.5t125.5 -94t153.5 -34.5 q80 0 151 34.5t123 94t82.5 140.5t30.5 171q0 92 -30.5 173t-82.5 141.5t-123 95t-151 34.5q-82 0 -153.5 -34.5t-125.5 -95t-85 -141.5t-31 -173z" />
<glyph unicode="p" horiz-adv-x="1036" d="M88 -399v1423h82v-70q53 35 132 58.5t173 23.5q102 -2 191.5 -44t156 -112.5t105.5 -166t39 -201.5q0 -111 -39 -207t-105.5 -167.5t-155.5 -113.5t-192 -42q-90 0 -170 22.5t-133 56.5v-460h-84zM170 143q43 -20 94 -37q43 -14 97.5 -26t113.5 -14q84 2 158 37.5t129 96 t87 140.5t32 172q0 90 -32 170t-87 139.5t-129 93t-158 33.5q-66 0 -121 -13t-96 -30q-49 -18 -88 -41v-721z" />
<glyph unicode="q" horiz-adv-x="1054" d="M47 510q0 109 39 204t106.5 166.5t156.5 113.5t190 42q94 0 175 -20.5t134 -54.5v63h84v-1423h-84v467q-59 -41 -137 -62.5t-172 -21.5h6h-6q-100 2 -189.5 44t-157 112.5t-106.5 165.5t-39 204zM131 510q0 -92 33 -171t88 -138.5t129 -94t158 -36.5q59 0 115.5 11 t99.5 25q51 16 94 39v725q-41 23 -90 41q-41 16 -96.5 28.5t-116.5 12.5h-6q-84 0 -158 -34.5t-129 -95t-88 -140.5t-33 -172z" />
<glyph unicode="r" horiz-adv-x="585" d="M92 1024h86v-150q49 78 122 120t161 42q10 0 40.5 -3t43.5 -7l-10 -90q-35 12 -70 12q-26 0 -50 -7q-58 -15 -107.5 -54t-84.5 -91.5t-45 -103.5l2 -692h-86z" />
<glyph unicode="s" horiz-adv-x="854" d="M104 776q0 57 28 105.5t75 82t108.5 52t130.5 18.5q96 0 181.5 -35.5t138.5 -91.5l-70 -51q-47 45 -114.5 68.5t-143.5 23.5q-104 0 -174.5 -49t-70.5 -127q0 -37 18 -71.5t52 -64.5t81 -50.5t102 -28.5q70 -10 129.5 -39t102.5 -68.5t66.5 -90t23.5 -105.5 q0 -61 -26.5 -110.5t-72.5 -85t-106.5 -55t-128.5 -19.5q-96 0 -185 34.5t-143 98.5l66 51q43 -43 110.5 -71.5t145.5 -28.5q106 0 180 51t74 135q0 39 -18.5 75t-52 66.5t-80 52t-101.5 29.5q-72 10 -131 39t-102 69t-68 89t-25 102z" />
<glyph unicode="t" horiz-adv-x="696" d="M104 922v88h152v405h86v-405h276v-88h-276l2 -922h-82q-2 176 -2 344v578h-156z" />
<glyph unicode="u" horiz-adv-x="921" d="M96 1024h84l4 -666q2 -59 22.5 -111t55.5 -92t82 -62.5t102 -22.5q51 0 99.5 20.5t86.5 55t63.5 81.5t31.5 101v696h86v-926v-98h-84l-2 143q-47 -72 -121 -116.5t-162 -44.5q-72 0 -133 29.5t-107 80.5t-73 120t-29 146z" />
<glyph unicode="v" horiz-adv-x="1024" d="M49 1024h92l367 -905l364 905h99l-416 -1024h-92z" />
<glyph unicode="w" horiz-adv-x="1443" d="M39 1024h92l367 -905l164 405l-201 500h98l361 -905l364 905h98l-415 -1024l-95 6l-159 400l-168 -406l-94 6z" />
<glyph unicode="x" horiz-adv-x="909" d="M68 0l321 530l-313 494h108l262 -422l269 422h106l-317 -510l319 -514h-102l-281 442l-270 -442h-102z" />
<glyph unicode="y" horiz-adv-x="980" d="M59 -399l11 88q4 -4 8 -6t8 -7h4q10 0 22.5 -1t24.5 -1q72 0 140.5 48.5t105.5 140.5l84 209l-397 964h92l346 -864l340 864h92l-393 -964l-90 -240l-4 -18q-49 -109 -136.5 -166.5t-183.5 -57.5q-33 1 -74 11z" />
<glyph unicode="z" horiz-adv-x="925" d="M92 88l639 848h-633v88h746v-88l-639 -848h639l2 -88h-752z" />
<glyph unicode="{" horiz-adv-x="456" d="M86 684v86h41q39 0 64.5 26.5t25.5 65.5v461v4v6q6 37 42 59.5t81 22.5v-88q-35 0 -35 -4v-485q-10 -27 -33.5 -47.5t-54.5 -20.5v-86q31 0 54.5 -17.5t33.5 -48.5v-522q0 -10 35 -10l2 -86q-18 0 -39.5 7t-41 19.5t-32 30t-12.5 39.5v496q0 41 -25.5 66.5t-64.5 25.5 h-41z" />
<glyph unicode="|" horiz-adv-x="268" d="M115 2v1466h53v-1466h-53z" />
<glyph unicode="}" horiz-adv-x="385" d="M57 86q16 0 26.5 3t14.5 7v522q6 31 29 48.5t53 17.5l4 86q-35 0 -57.5 20.5t-28.5 47.5v485q-6 4 -41 4v88q53 0 85 -23.5t38 -58.5l4 -6v-4v-461q0 -39 23.5 -65.5t60.5 -26.5h43v-86h-43q-37 0 -60.5 -25.5t-23.5 -66.5v-496q0 -41 -41 -68.5t-84 -27.5z" />
<glyph unicode="~" horiz-adv-x="710" d="M139 612l19 105q33 -41 81 -52.5t89 15.5h2q55 37 122.5 34t122.5 -42l-18 -107l-2 2q-31 43 -81 54.5t-91 -15.5h-2q-53 -37 -120 -34t-122 40z" />
<glyph unicode="&#xa1;" horiz-adv-x="327" d="M117 1374q0 20 13 34.5t34 14.5q20 0 34.5 -14t14.5 -35q0 -20 -14.5 -33.5t-34.5 -13.5q-23 0 -34 13.5t-13 33.5zM127 1204h74l2 -1204h-74z" />
<glyph unicode="&#xa2;" horiz-adv-x="978" d="M47 508q0 102 35 193.5t95.5 162t141 114.5t173.5 54v139h96v-139q90 -10 166.5 -52t134.5 -103l-62 -64q-45 53 -106.5 88t-132.5 45v-876q68 10 128 42.5t107 86.5l62 -60q-61 -63 -136 -103t-161 -50v-140h-96v140q-92 8 -173 52t-141.5 114.5t-95.5 162t-35 193.5z M133 508q0 -84 27.5 -160t76 -134t114 -97t141.5 -47v876q-76 -10 -141.5 -47t-114 -95.5t-76 -134t-27.5 -161.5z" />
<glyph unicode="&#xa3;" horiz-adv-x="1138" d="M51 616v86h246v713h86v-713h375v-86h-375v-530h690l2 -86h-776l-2 616h-246z" />
<glyph unicode="&#xa4;" horiz-adv-x="1705" />
<glyph unicode="&#xa5;" horiz-adv-x="1394" d="M72 1415h116l504 -692l512 692h115l-580 -774v-80h299v-90h-299v-78h299v-90h-299l2 -303h-88l-2 303h-299v90h299v78h-299v90h299v80z" />
<glyph unicode="&#xa6;" horiz-adv-x="268" d="M115 2v703h53v-703h-53zM115 840v628h53v-628h-53z" />
<glyph unicode="&#xa7;" horiz-adv-x="780" d="M100 885q0 119 78 202v29q0 74 27.5 131.5t74 97t108 60t128.5 20.5q53 0 121 -19.5t154 -59.5l-91 -199q-123 61 -190 61q-23 0 -44.5 -5t-37.5 -13h6q53 0 124 -20.5t153 -57.5l-84 -201q-51 25 -91 39.5t-73 18.5q27 -25 69 -47q59 -29 107.5 -72t83.5 -93 t53.5 -106.5t18.5 -111.5q0 -59 -21.5 -111.5t-56.5 -95.5v-25q0 -78 -29 -138t-77 -101t-109.5 -62.5t-124.5 -21.5q-55 0 -125 20.5t-150 63.5l93 186q59 -29 103 -42t77 -13q55 0 90 20h-10q-53 0 -122 19.5t-149 64.5l86 186q55 -27 102.5 -41t82.5 -14q-16 16 -38 32.5 t-48 31.5q-59 31 -109.5 74.5t-85.5 95t-54.5 107t-19.5 110.5zM129 885q0 -49 17.5 -101.5t50 -99.5t80 -88t104.5 -70v2q88 -45 135 -118q-14 -4 -29.5 -6.5t-29.5 -2.5q-35 0 -80 13.5t-94 36.5l-62 -136q61 -35 120.5 -50t113.5 -15q23 0 42 1t40 7q-16 -47 -60.5 -69.5 t-101.5 -22.5q-74 0 -168 47l-64 -129q131 -70 234 -70q59 0 115.5 19.5t99.5 57.5t69.5 92.5t26.5 123.5v17q0 8 -2 18q33 39 56.5 91t23.5 106q0 104 -67.5 200.5t-178.5 153.5q-41 23 -72.5 51.5t-54.5 59.5q10 2 37 2q78 0 180 -52l62 142q-63 29 -124 45t-114 16 q-41 0 -78 -6q12 43 55.5 66.5t98.5 23.5q72 0 178 -51l62 141q-66 33 -124.5 47.5t-109.5 14.5q-61 0 -117.5 -18.5t-98.5 -54.5t-66.5 -87t-24.5 -117v-19q0 -9 2 -22q-82 -71 -82 -190zM158 885q0 111 86 178q-6 27 -6 53q0 57 22.5 103.5t60 78t88 48t107.5 16.5 q94 0 195 -47l-37 -84q-41 23 -84 32t-80 9q-78 0 -133 -40t-55 -118v-6q51 18 112 18q98 0 199 -47l-35 -84q-82 41 -168 41q-47 0 -84 -14q23 -43 63 -86t99 -72q106 -53 167.5 -140t61.5 -185q0 -53 -23.5 -101.5t-58.5 -83.5q2 -12 3 -24.5t1 -22.5q0 -61 -23.5 -110.5 t-63.5 -82t-91 -50t-104 -17.5q-96 0 -195 49l37 76q41 -20 79 -28.5t77 -8.5q82 0 141 43t59 129q-29 -16 -59.5 -20t-60.5 -4q-49 0 -98.5 11t-96.5 36l37 80q84 -39 160 -39q57 0 100 20q-23 49 -63.5 93t-100.5 73q-53 25 -97 62.5t-75 80.5t-47 90.5t-16 94.5zM246 877 q0 -66 49 -134.5t135 -111.5q66 -31 115 -80t76 -102q6 6 14 22q10 16 13 34.5t3 37.5q0 70 -48 139.5t-134 112.5q-66 29 -114 76t-76 100q-16 -16 -24.5 -42.5t-8.5 -51.5zM274 877q0 8 2.5 17t4.5 17q63 -94 178 -147l-2 2q78 -39 122 -100.5t44 -122.5q0 -10 -1 -17.5 t-4 -15.5q-63 94 -176 152v-3q-78 39 -123 99t-45 119zM315 819q16 -35 51 -69.5t89 -61.5h-2q37 -16 68.5 -38.5t58.5 -47.5q-16 37 -50 73t-86 60l2 -2q-39 16 -70.5 38.5t-60.5 47.5z" />
<glyph unicode="&#xa8;" horiz-adv-x="538" d="M78 1331q0 23 17.5 39t41.5 16q23 0 41.5 -16t18.5 -39t-18.5 -39t-41.5 -16q-25 0 -42 16t-17 39zM352 1331q0 23 17.5 39t42.5 16q23 0 41 -16t18 -39t-18.5 -39t-40.5 -16q-25 0 -42.5 16t-17.5 39z" />
<glyph unicode="&#xa9;" horiz-adv-x="1705" />
<glyph unicode="&#xaa;" horiz-adv-x="366" d="M51 768q0 47 37 81t94 34h72v12q0 35 -19.5 62.5t-46.5 27.5t-48 -2t-44 -10l-10 51q43 12 102 12q47 0 79 -39t36 -102q-2 -18 -2 -37v-78q0 -39 6 -76.5t17 -48.5h-70v13q-29 -20 -76 -21q-53 0 -90 35t-37 86zM102 768q0 -27 22.5 -47.5t53.5 -20.5q29 0 52.5 20.5 t23.5 47.5v66h-76q-31 0 -53.5 -21.5t-22.5 -44.5z" />
<glyph unicode="&#xab;" horiz-adv-x="1089" d="M59 569l541 457l57 -65l-477 -402l398 -473l-66 -57zM408 569l540 457l58 -65l-478 -402l398 -473l-66 -57z" />
<glyph unicode="&#xac;" horiz-adv-x="1355" d="M84 707v86h1190v-459h-86v373h-1104z" />
<glyph unicode="&#xad;" horiz-adv-x="862" d="M84 559v86h707v-86h-707z" />
<glyph unicode="&#xae;" horiz-adv-x="1705" />
<glyph unicode="&#xb0;" horiz-adv-x="512" d="M53 1221q0 88 58.5 145t148.5 57q80 0 137.5 -57t57.5 -145q0 -41 -15.5 -76t-42 -61.5t-62.5 -42t-75 -15.5q-45 0 -83 15.5t-65.5 42t-43 61.5t-15.5 76zM111 1221q0 -53 45 -97.5t104 -44.5q25 0 49.5 12.5t43 32t30.5 45t12 52.5q0 29 -12 56.5t-30.5 49t-43 33.5 t-49.5 12q-59 0 -104 -46t-45 -105z" />
<glyph unicode="&#xb1;" horiz-adv-x="925" d="M111 315v86h706v-86h-706zM113 942v86h309v309h86v-309h311v-86h-311v-311h-86v311h-309z" />
<glyph unicode="&#xb2;" horiz-adv-x="573" d="M68 649v62l317 354q23 25 36 58.5t13 62.5q0 35 -15.5 66.5t-40 55t-57 38t-67.5 14.5t-69.5 -15.5t-67.5 -48.5l-49 52q41 35 86 55t100 20q51 0 95 -18.5t77 -51t51.5 -75.5t18.5 -92q0 -47 -20.5 -93t-43.5 -75l-272 -307h336v-62h-428z" />
<glyph unicode="&#xb3;" horiz-adv-x="542" d="M37 725l39 41h16q25 -29 63 -47.5t76 -18.5q31 0 62 12.5t54.5 33t37.5 48t14 58.5t-13 57.5t-34.5 47t-49.5 34t-56 17.5h-111v63h111q31 2 58.5 14.5t49 32t34.5 45t13 51.5q0 27 -14 52.5t-37.5 45t-53.5 31t-63 11.5q-39 0 -78.5 -16.5t-70.5 -51.5l-47 49 q74 80 196 80q49 0 91.5 -15.5t75 -43t51 -63.5t18.5 -79q0 -123 -115 -176q45 -31 77 -81t32 -105q0 -45 -18.5 -84t-50.5 -67.5t-73.5 -45t-89.5 -16.5q-61 0 -110 22.5t-84 63.5z" />
<glyph unicode="&#xb4;" horiz-adv-x="428" d="M88 1133l135 178h135l-223 -178h-47z" />
<glyph unicode="&#xb5;" horiz-adv-x="1015" d="M174 -399v1423h86v-739q0 -18 24.5 -54t64.5 -72t90 -62.5t102 -26.5q55 0 102 22.5t82 62.5t55.5 92t22.5 111l4 666h84l-6 -666q-2 -78 -29 -146.5t-73 -119.5t-107.5 -80.5t-132.5 -29.5q-88 0 -162 45t-121 116l-2 -542h-84z" />
<glyph unicode="&#xb6;" horiz-adv-x="782" d="M59 1079q0 70 27 131.5t72 106.5t106.5 71.5t130.5 26.5h82v-1415h-82v741q-70 0 -131 27t-106 73t-72 107t-27 131zM143 1087q0 -53 17.5 -99t48.5 -80t70.5 -54t85.5 -20v507q-45 0 -85 -20.5t-71 -54t-48.5 -81t-17.5 -98.5zM539 0v1413h82v-1413h-82z" />
<glyph unicode="&#xb7;" horiz-adv-x="460" d="M127 643q0 39 31.5 70.5t77.5 31.5q43 0 76.5 -31.5t33.5 -70.5t-33.5 -69.5t-76.5 -30.5q-45 0 -77 30.5t-32 69.5z" />
<glyph unicode="&#xb9;" horiz-adv-x="538" d="M74 1202l258 213h86v-614h-86v504l-197 -162z" />
<glyph unicode="&#xba;" horiz-adv-x="475" d="M53 831q0 90 53.5 147.5t133.5 57.5q37 0 68.5 -15t55 -43t38 -64.5t14.5 -82.5q0 -41 -14.5 -75.5t-38 -61t-55.5 -42t-68 -15.5q-80 0 -133.5 57t-53.5 137zM104 831q0 -53 41 -97t95 -44q23 0 44 12.5t38.5 32t28.5 45t11 51.5q0 31 -11 59t-28.5 49.5t-39 33.5 t-43.5 12q-27 0 -51.5 -12t-43 -33.5t-30 -49.5t-11.5 -59z" />
<glyph unicode="&#xbb;" horiz-adv-x="1073" d="M59 961l58 65l540 -457l-452 -540l-66 57l398 473zM408 961l57 65l541 -457l-453 -540l-66 57l398 473z" />
<glyph unicode="&#xbc;" horiz-adv-x="782" d="M70 930l129 106h43v-600h-43v545l-99 -80zM324 260v43l235 404l37 -21l-223 -383h211v158h43v-158h100v-43h-100l2 -260h-43l-2 260h-260z" />
<glyph unicode="&#xbd;" horiz-adv-x="727" d="M45 932l129 106h43v-602h-43v547l-98 -80zM279 41l299 334q20 23 32.5 53.5t12.5 63.5q0 76 -52.5 126t-128.5 50q-72 0 -125 -50l-30 31q31 29 69.5 45.5t85.5 16.5q45 0 86 -17.5t72 -47.5t48.5 -69.5t17.5 -84.5t-17.5 -82t-44.5 -66l-268 -303h330l2 -41h-387z" />
<glyph unicode="&#xbe;" horiz-adv-x="937" d="M66 389l30 29q23 -27 58.5 -43.5t76.5 -16.5q37 0 69 12.5t55.5 34t37 49t13.5 60.5q0 43 -22 75t-57.5 52.5t-81.5 27.5t-93 -1v43h94q68 4 115 45t47 96q0 61 -50.5 103t-121.5 42q-88 0 -140 -57l-30 31q63 68 170 67q45 0 83.5 -14t68.5 -40t47.5 -59.5t17.5 -72.5 q0 -53 -34 -97t-87 -67q53 -25 85 -71t32 -103q0 -41 -17.5 -78t-46.5 -63.5t-69 -42t-85 -15.5q-51 0 -93.5 20.5t-71.5 53.5zM479 264v43l236 404l37 -21l-222 -383h209v158h43v-158h103v-43h-103v-260h-43v260h-260z" />
<glyph unicode="&#xbf;" horiz-adv-x="884" d="M96 367q0 78 30 147.5t80 122.5t116.5 85t140.5 32h115l-193 661h88l193 -661v-88h-203q-59 -2 -110.5 -26t-89.5 -64.5t-60.5 -94t-22.5 -114.5t22.5 -115.5t62.5 -95.5t93.5 -64.5t114.5 -23.5q82 0 146.5 41t105.5 106l61 -63q-51 -76 -132 -124t-181 -48 q-78 0 -145.5 30.5t-119.5 83.5t-82 123t-30 150zM322 1610q0 27 15 43t42 16q23 0 38 -16.5t15 -42.5q0 -25 -15.5 -41.5t-37.5 -16.5q-27 0 -42 16.5t-15 41.5z" />
<glyph unicode="&#xc0;" d="M66 0l520 1415h71l525 -1415h-90l-222 588h-497l-217 -588h-90zM403 674h437l-219 590zM389 1702h136l135 -178h-47z" />
<glyph unicode="&#xc1;" d="M66 0l520 1415h71l525 -1415h-90l-222 588h-497l-217 -588h-90zM403 674h437l-219 590zM592 1524l135 178h135l-223 -178h-47z" />
<glyph unicode="&#xc2;" d="M66 0l520 1415h71l525 -1415h-90l-222 588h-497l-217 -588h-90zM403 674h437l-219 590z" />
<glyph unicode="&#xc3;" d="M66 0l520 1415h71l525 -1415h-90l-222 588h-497l-217 -588h-90zM379 1589l18 105q33 -41 81 -52.5t89 15.5h2q55 37 123 34t123 -42l-18 -107l-2 2q-31 43 -81 54.5t-91 -15.5h-2q-53 -37 -120 -34t-122 40zM403 674h437l-219 590z" />
<glyph unicode="&#xc4;" d="M66 0l520 1415h71l525 -1415h-90l-222 588h-497l-217 -588h-90zM403 674h437l-219 590zM410 1562q0 23 17.5 39t41.5 16q23 0 41.5 -16t18.5 -39t-18.5 -39t-41.5 -16q-25 0 -42 16t-17 39zM684 1562q0 23 17.5 39t42.5 16q23 0 41 -16t18 -39t-18.5 -39t-40.5 -16 q-25 0 -42.5 16t-17.5 39z" />
<glyph unicode="&#xc5;" d="M66 0l520 1415h71l525 -1415h-90l-222 588h-497l-217 -588h-90zM403 674h437l-219 590z" />
<glyph unicode="&#xc6;" horiz-adv-x="2213" d="M66 0l520 1415h538h783v-82h-731v-536h624v-86h-624v-625h731l2 -86h-817l-2 588h-717l-217 -588h-90zM403 674h687l18 659h-469z" />
<glyph unicode="&#xc7;" horiz-adv-x="1298" d="M109 700q0 154 51 286t138 229.5t205 152.5t251 55q127 0 239.5 -51t198.5 -143q0 -2 1 -2t1 -2l-59 -58l-2 2q-76 80 -173.5 126t-205.5 46q-117 0 -219.5 -51t-178 -139t-119.5 -204t-44 -247q0 -127 43 -242.5t118.5 -203.5t178 -139.5t221.5 -51.5q109 0 205 45.5 t169 122.5l62 -57q-92 -98 -208 -145t-251 -47l-18 -48q8 0 25.5 -8t36 -23.5t31.5 -37t13 -45.5q0 -29 -21.5 -58.5t-78.5 -62.5l-68 51q8 0 24.5 3t33 12.5t30 22.5t13.5 36q0 18 -12.5 30.5t-29 19.5t-34 10t-29.5 3h-16l2 105q-111 25 -207 88t-167 156.5t-110.5 212 t-39.5 251.5z" />
<glyph unicode="&#xc8;" horiz-adv-x="993" d="M90 1415h817v-82h-731v-536h625v-86h-625v-625h731l2 -86h-817zM247 1702h136l135 -178h-47z" />
<glyph unicode="&#xc9;" horiz-adv-x="993" d="M90 1415h817v-82h-731v-536h625v-86h-625v-625h731l2 -86h-817zM422 1524l135 178h135l-223 -178h-47z" />
<glyph unicode="&#xca;" horiz-adv-x="993" d="M90 1415h817v-82h-731v-536h625v-86h-625v-625h731l2 -86h-817zM276 1554l220 217l221 -219l-53 -51l-168 170l-170 -170z" />
<glyph unicode="&#xcb;" horiz-adv-x="993" d="M90 1415h817v-82h-731v-536h625v-86h-625v-625h731l2 -86h-817zM295 1564q0 23 17.5 39t41.5 16q23 0 41.5 -16t18.5 -39t-18.5 -39t-41.5 -16q-25 0 -42 16t-17 39zM569 1564q0 23 17.5 39t42.5 16q23 0 41 -16t18 -39t-18.5 -39t-40.5 -16q-25 0 -42.5 16t-17.5 39z " />
<glyph unicode="&#xcc;" horiz-adv-x="268" d="M116 1415h86l2 -1415h-86zM-50 1702h136l135 -178h-47z" />
<glyph unicode="&#xcd;" horiz-adv-x="315" d="M100 1415h86l2 -1415h-86zM123 1524l135 178h135l-223 -178h-47z" />
<glyph unicode="&#xce;" horiz-adv-x="282" d="M100 1415h86l2 -1415h-86z" />
<glyph unicode="&#xcf;" horiz-adv-x="282" d="M100 1415h86l2 -1415h-86zM-53 1562q0 23 17.5 39t41.5 16q23 0 41.5 -16t18.5 -39t-18.5 -39t-41.5 -16q-25 0 -42 16t-17 39zM221 1562q0 23 17.5 39t42.5 16q23 0 41 -16t18 -39t-18.5 -39t-40.5 -16q-25 0 -42.5 16t-17.5 39z" />
<glyph unicode="&#xd0;" horiz-adv-x="1337" d="M88 561v86h139v768h523q102 -2 192 -57t156.5 -150.5t105.5 -223.5t39 -273t-38 -273.5t-104.5 -223.5t-155.5 -151.5t-191 -58.5l2 -4h-527l-2 561h-139zM313 86h441v4q84 2 157.5 52.5t128 134t86 195.5t31.5 239q0 125 -31.5 237.5t-87 196.5t-129 133t-159.5 51h-437 v-682h357v-86h-357v-475z" />
<glyph unicode="&#xd1;" horiz-adv-x="1099" d="M96 1415h84l733 -1243v1243h86l2 -1415h-86l-735 1249l2 -1249h-84zM340 1545l19 104q33 -41 81 -52t88 15h3q55 37 122.5 34t122.5 -42l-18 -106l-2 2q-31 43 -81 54t-91 -16h-2q-53 -37 -120 -33.5t-122 40.5z" />
<glyph unicode="&#xd2;" horiz-adv-x="1413" d="M59 707q0 150 50.5 279.5t138.5 227t204.5 153.5t249.5 56q137 0 255 -56t204 -152.5t135.5 -227.5t49.5 -280q0 -160 -51.5 -294t-145.5 -233q-88 -96 -201.5 -147t-245.5 -51q-129 0 -245.5 55t-204.5 152.5t-140.5 230.5t-52.5 287zM147 707q0 -133 43 -249t118 -202 t176.5 -136t217.5 -50q119 0 222.5 50t178.5 136t118 201.5t43 249.5q0 139 -47.5 256.5t-131.5 203.5q-72 80 -171 124t-212 44q-115 0 -216 -49t-177 -134t-119 -199.5t-43 -245.5zM434 1702h136l135 -178h-47z" />
<glyph unicode="&#xd3;" horiz-adv-x="1413" d="M59 707q0 150 50.5 279.5t138.5 227t204.5 153.5t249.5 56q137 0 255 -56t204 -152.5t135.5 -227.5t49.5 -280q0 -160 -51.5 -294t-145.5 -233q-88 -96 -201.5 -147t-245.5 -51q-129 0 -245.5 55t-204.5 152.5t-140.5 230.5t-52.5 287zM147 707q0 -133 43 -249t118 -202 t176.5 -136t217.5 -50q119 0 222.5 50t178.5 136t118 201.5t43 249.5q0 139 -47.5 256.5t-131.5 203.5q-72 80 -171 124t-212 44q-115 0 -216 -49t-177 -134t-119 -199.5t-43 -245.5zM704 1524l135 178h135l-223 -178h-47z" />
<glyph unicode="&#xd4;" horiz-adv-x="1413" d="M59 707q0 150 50.5 279.5t138.5 227t204.5 153.5t249.5 56q137 0 255 -56t204 -152.5t135.5 -227.5t49.5 -280q0 -160 -51.5 -294t-145.5 -233q-88 -96 -201.5 -147t-245.5 -51q-129 0 -245.5 55t-204.5 152.5t-140.5 230.5t-52.5 287zM147 707q0 -133 43 -249t118 -202 t176.5 -136t217.5 -50q119 0 222.5 50t178.5 136t118 201.5t43 249.5q0 139 -47.5 256.5t-131.5 203.5q-72 80 -171 124t-212 44q-115 0 -216 -49t-177 -134t-119 -199.5t-43 -245.5zM485 1554l220 217l221 -219l-53 -51l-168 170l-170 -170z" />
<glyph unicode="&#xd5;" horiz-adv-x="1413" d="M59 707q0 150 50.5 279.5t138.5 227t204.5 153.5t249.5 56q137 0 255 -56t204 -152.5t135.5 -227.5t49.5 -280q0 -160 -51.5 -294t-145.5 -233q-88 -96 -201.5 -147t-245.5 -51q-129 0 -245.5 55t-204.5 152.5t-140.5 230.5t-52.5 287zM147 707q0 -133 43 -249t118 -202 t176.5 -136t217.5 -50q119 0 222.5 50t178.5 136t118 201.5t43 249.5q0 139 -47.5 256.5t-131.5 203.5q-72 80 -171 124t-212 44q-115 0 -216 -49t-177 -134t-119 -199.5t-43 -245.5zM496 1547l19 104q33 -41 81 -52t88 15h3q55 37 122.5 34t122.5 -42l-18 -106l-2 2 q-31 43 -81 54t-91 -16h-2q-53 -37 -120 -33.5t-122 40.5z" />
<glyph unicode="&#xd6;" horiz-adv-x="1413" d="M59 707q0 150 50.5 279.5t138.5 227t204.5 153.5t249.5 56q137 0 255 -56t204 -152.5t135.5 -227.5t49.5 -280q0 -160 -51.5 -294t-145.5 -233q-88 -96 -201.5 -147t-245.5 -51q-129 0 -245.5 55t-204.5 152.5t-140.5 230.5t-52.5 287zM147 707q0 -133 43 -249t118 -202 t176.5 -136t217.5 -50q119 0 222.5 50t178.5 136t118 201.5t43 249.5q0 139 -47.5 256.5t-131.5 203.5q-72 80 -171 124t-212 44q-115 0 -216 -49t-177 -134t-119 -199.5t-43 -245.5zM506 1564q0 23 17.5 39t41.5 16q23 0 41.5 -16t18.5 -39t-18.5 -39t-41.5 -16 q-25 0 -42 16t-17 39zM780 1564q0 23 17.5 39t42.5 16q23 0 41 -16t18 -39t-18.5 -39t-40.5 -16q-25 0 -42.5 16t-17.5 39z" />
<glyph unicode="&#xd7;" horiz-adv-x="751" d="M82 424l219 221l-217 217l59 62l219 -219l220 219l61 -60l-219 -219l219 -221l-59 -59l-222 219l-219 -219z" />
<glyph unicode="&#xd8;" horiz-adv-x="1413" d="M59 707q0 150 50.5 279.5t138.5 227t204.5 153.5t249.5 56q104 0 205 -34l11 26h92l-23 -61q168 -94 263.5 -263t95.5 -384q0 -160 -51.5 -294t-145.5 -233q-88 -96 -201.5 -147t-245.5 -51q-53 0 -104 10t-98 26l-4 -18h-95l19 55q-78 41 -143.5 107.5t-113.5 150.5 t-76 184.5t-28 209.5zM147 707q0 -94 23 -180.5t62.5 -160t95 -133t121.5 -98.5l428 1170q-84 31 -175 30q-115 0 -216 -49t-177 -134t-119 -199.5t-43 -245.5zM528 100q82 -31 174 -30q119 0 222.5 50t178.5 136t118 201.5t43 249.5q0 139 -47.5 256.5t-131.5 203.5 q-61 63 -129 103z" />
<glyph unicode="&#xd9;" horiz-adv-x="1224" d="M88 354v1061h92v-1061q4 -59 40 -111.5t94.5 -90t136 -60t165.5 -22.5q84 0 160 22.5t134.5 60t93 90t38.5 111.5v1061h86v-1061q-4 -76 -45 -143.5t-110.5 -118.5t-161.5 -80.5t-195 -29.5q-106 0 -200 29.5t-165 80.5t-114 118.5t-49 143.5zM376 1702h136l135 -178h-47 z" />
<glyph unicode="&#xda;" horiz-adv-x="1224" d="M88 354v1061h92v-1061q4 -59 40 -111.5t94.5 -90t136 -60t165.5 -22.5q84 0 160 22.5t134.5 60t93 90t38.5 111.5v1061h86v-1061q-4 -76 -45 -143.5t-110.5 -118.5t-161.5 -80.5t-195 -29.5q-106 0 -200 29.5t-165 80.5t-114 118.5t-49 143.5zM584 1524l135 178h135 l-223 -178h-47z" />
<glyph unicode="&#xdb;" horiz-adv-x="1224" d="M88 354v1061h92v-1061q4 -59 40 -111.5t94.5 -90t136 -60t165.5 -22.5q84 0 160 22.5t134.5 60t93 90t38.5 111.5v1061h86v-1061q-4 -76 -45 -143.5t-110.5 -118.5t-161.5 -80.5t-195 -29.5q-106 0 -200 29.5t-165 80.5t-114 118.5t-49 143.5zM391 1554l220 217l221 -219 l-53 -51l-168 170l-170 -170z" />
<glyph unicode="&#xdc;" horiz-adv-x="1224" d="M88 354v1061h92v-1061q4 -59 40 -111.5t94.5 -90t136 -60t165.5 -22.5q84 0 160 22.5t134.5 60t93 90t38.5 111.5v1061h86v-1061q-4 -76 -45 -143.5t-110.5 -118.5t-161.5 -80.5t-195 -29.5q-106 0 -200 29.5t-165 80.5t-114 118.5t-49 143.5zM412 1562q0 23 17.5 39 t41.5 16q23 0 41.5 -16t18.5 -39t-18.5 -39t-41.5 -16q-25 0 -42 16t-17 39zM686 1562q0 23 17.5 39t42.5 16q23 0 41 -16t18 -39t-18.5 -39t-40.5 -16q-25 0 -42.5 16t-17.5 39z" />
<glyph unicode="&#xdd;" horiz-adv-x="1394" d="M72 1415h116l504 -692l512 692h115l-580 -774l2 -641h-88l-2 641zM686 1524l135 178h135l-223 -178h-47z" />
<glyph unicode="&#xde;" horiz-adv-x="1095" d="M127 -401v1818h86v-456q55 35 133 57t170 22q102 -2 192.5 -44t157 -112.5t105.5 -165.5t39 -204q0 -111 -39 -208t-105.5 -168.5t-157 -113.5t-192.5 -42q-94 0 -168 24.5t-137 54.5v-462h-84zM207 842l6 -647q-2 -25 20.5 -47.5t64.5 -40t98.5 -27.5t119.5 -12 q82 2 155.5 37.5t129 95t88.5 140.5t33 171q0 88 -33 168t-88.5 140.5t-129 96t-155.5 35.5q-59 0 -112.5 -8t-95.5 -23.5t-68.5 -35.5t-32.5 -43z" />
<glyph unicode="&#xdf;" horiz-adv-x="1064" d="M109 -354v1769h86h366q78 -2 146.5 -30.5t119 -75.5t80 -109.5t29.5 -132.5q0 -104 -55.5 -187t-147.5 -130q106 -45 169 -139.5t63 -209.5q0 -80 -31 -151.5t-85 -125.5t-128 -86t-160 -34h-174l-82 82h256q66 2 124 28.5t101 69.5t68 98.5t25 118.5q0 61 -26 115.5 t-72 96.5t-111.5 68t-145.5 30h-329v-1065h-86zM195 797h366q61 2 113.5 23.5t91.5 57t61.5 85t22.5 104.5q0 51 -22.5 98t-61.5 84t-91 58.5t-114 25.5h-37h-329v-536z" />
<glyph unicode="&#xe0;" horiz-adv-x="831" d="M102 289q0 63 27 120.5t71 100.5t104.5 67.5t127.5 24.5h246v43v21q0 57 -15.5 109t-44 90t-67.5 61.5t-84 25.5h-2q-33 0 -55.5 -2t-41 -7t-37.5 -11l-46 -14l-21 79l50 18q22 7 43.5 12t47 7t60.5 2h2q61 -2 113.5 -29.5t92.5 -74.5t63.5 -109.5t27.5 -134.5v-22 q-2 -182 -2 -326q0 -61 -1 -120.5t-1 -107.5v-79v-33h-82v84q-47 -47 -110.5 -74.5t-135.5 -27.5q-68 0 -128 24.5t-104 66.5t-71 98.5t-27 117.5zM188 289q0 -47 19.5 -87t52.5 -70t78 -47t94 -17q51 0 95 17t78 47t53.5 71t19.5 88v223q-90 0 -139.5 1t-71.5 1h-28h-7 q-49 0 -94 -18.5t-78 -49t-52.5 -71.5t-19.5 -88zM294 1311h136l135 -178h-47z" />
<glyph unicode="&#xe1;" horiz-adv-x="831" d="M102 289q0 63 27 120.5t71 100.5t104.5 67.5t127.5 24.5h246v43v21q0 57 -15.5 109t-44 90t-67.5 61.5t-84 25.5h-2q-33 0 -55.5 -2t-41 -7t-37.5 -11l-46 -14l-21 79l50 18q22 7 43.5 12t47 7t60.5 2h2q61 -2 113.5 -29.5t92.5 -74.5t63.5 -109.5t27.5 -134.5v-22 q-2 -182 -2 -326q0 -61 -1 -120.5t-1 -107.5v-79v-33h-82v84q-47 -47 -110.5 -74.5t-135.5 -27.5q-68 0 -128 24.5t-104 66.5t-71 98.5t-27 117.5zM188 289q0 -47 19.5 -87t52.5 -70t78 -47t94 -17q51 0 95 17t78 47t53.5 71t19.5 88v223q-90 0 -139.5 1t-71.5 1h-28h-7 q-49 0 -94 -18.5t-78 -49t-52.5 -71.5t-19.5 -88zM434 1133l135 178h135l-223 -178h-47z" />
<glyph unicode="&#xe2;" horiz-adv-x="831" d="M102 289q0 63 27 120.5t71 100.5t104.5 67.5t127.5 24.5h246v43v21q0 57 -15.5 109t-44 90t-67.5 61.5t-84 25.5h-2q-33 0 -55.5 -2t-41 -7t-37.5 -11l-46 -14l-21 79l50 18q22 7 43.5 12t47 7t60.5 2h2q61 -2 113.5 -29.5t92.5 -74.5t63.5 -109.5t27.5 -134.5v-22 q-2 -182 -2 -326q0 -61 -1 -120.5t-1 -107.5v-79v-33h-82v84q-47 -47 -110.5 -74.5t-135.5 -27.5q-68 0 -128 24.5t-104 66.5t-71 98.5t-27 117.5zM188 289q0 -47 19.5 -87t52.5 -70t78 -47t94 -17q51 0 95 17t78 47t53.5 71t19.5 88v223q-90 0 -139.5 1t-71.5 1h-28h-7 q-49 0 -94 -18.5t-78 -49t-52.5 -71.5t-19.5 -88zM270 1163l220 217l221 -219l-53 -51l-168 170l-170 -170z" />
<glyph unicode="&#xe3;" horiz-adv-x="831" d="M102 289q0 63 27 120.5t71 100.5t104.5 67.5t127.5 24.5h246v43v21q0 57 -15.5 109t-44 90t-67.5 61.5t-84 25.5h-2q-33 0 -55.5 -2t-41 -7t-37.5 -11l-46 -14l-21 79l50 18q22 7 43.5 12t47 7t60.5 2h2q61 -2 113.5 -29.5t92.5 -74.5t63.5 -109.5t27.5 -134.5v-22 q-2 -182 -2 -326q0 -61 -1 -120.5t-1 -107.5v-79v-33h-82v84q-47 -47 -110.5 -74.5t-135.5 -27.5q-68 0 -128 24.5t-104 66.5t-71 98.5t-27 117.5zM188 289q0 -47 19.5 -87t52.5 -70t78 -47t94 -17q51 0 95 17t78 47t53.5 71t19.5 88v223q-90 0 -139.5 1t-71.5 1h-28h-7 q-49 0 -94 -18.5t-78 -49t-52.5 -71.5t-19.5 -88zM262 1212l19 88q33 -35 81 -44t89 14h2q55 31 122.5 27.5t122.5 -35.5l-18 -91l-2 3q-31 37 -81 46t-91 -14h-2q-53 -31 -120 -28t-122 34z" />
<glyph unicode="&#xe4;" horiz-adv-x="831" d="M102 289q0 63 27 120.5t71 100.5t104.5 67.5t127.5 24.5h246v43v21q0 57 -15.5 109t-44 90t-67.5 61.5t-84 25.5h-2q-33 0 -55.5 -2t-41 -7t-37.5 -11l-46 -14l-21 79l50 18q22 7 43.5 12t47 7t60.5 2h2q61 -2 113.5 -29.5t92.5 -74.5t63.5 -109.5t27.5 -134.5v-22 q-2 -182 -2 -326q0 -61 -1 -120.5t-1 -107.5v-79v-33h-82v84q-47 -47 -110.5 -74.5t-135.5 -27.5q-68 0 -128 24.5t-104 66.5t-71 98.5t-27 117.5zM188 289q0 -47 19.5 -87t52.5 -70t78 -47t94 -17q51 0 95 17t78 47t53.5 71t19.5 88v223q-90 0 -139.5 1t-71.5 1h-28h-7 q-49 0 -94 -18.5t-78 -49t-52.5 -71.5t-19.5 -88zM315 1298q0 23 17.5 39.5t42.5 16.5q23 0 41 -16.5t18 -39.5t-18.5 -39t-40.5 -16q-25 0 -42.5 16t-17.5 39zM590 1298q0 23 17.5 39.5t41.5 16.5q23 0 41.5 -16.5t18.5 -39.5t-18.5 -39t-41.5 -16q-25 0 -42 16t-17 39z " />
<glyph unicode="&#xe5;" horiz-adv-x="835" d="M59 289q0 63 27 120.5t71 100.5t104.5 67.5t127.5 24.5h246v43v21q0 57 -15.5 109t-44 90t-67.5 61.5t-84 25.5h-2q-33 0 -55.5 -2t-41 -7t-37.5 -11l-46 -14l-21 79l50 18q22 7 43.5 12t47 7t60.5 2h2q61 -2 113.5 -29.5t92.5 -74.5t63.5 -109.5t27.5 -134.5v-22 q-2 -182 -2 -326q0 -61 -1 -120.5t-1 -107.5v-79v-33h-82v84q-47 -47 -110.5 -74.5t-135.5 -27.5q-68 0 -128 24.5t-104 66.5t-71 98.5t-27 117.5zM145 289q0 -47 19.5 -87t52.5 -70t78 -47t94 -17q51 0 95 17t78 47t53.5 71t19.5 88v223q-90 0 -139.5 1t-71.5 1h-28h-7 q-49 0 -94 -18.5t-78 -49t-52.5 -71.5t-19.5 -88z" />
<glyph unicode="&#xe6;" horiz-adv-x="1521" d="M82 289q0 63 26.5 120.5t70.5 99.5t104.5 66.5t128.5 24.5h235q4 35 12 66q0 59 -18 110t-47 89t-69 60.5t-83 24.5h-2q-133 0 -237 -30l-21 81q121 35 258 35h2q92 -4 166 -63.5t109 -155.5q57 100 143 160.5t189 60.5q86 0 159.5 -40t128 -109.5t85 -163.5t30.5 -205 v-49h-711v-94q16 -68 48 -124t75 -98t95.5 -65.5t111.5 -23.5q33 0 69 7t71.5 18t68.5 24.5t57 25.5l35 -75q-53 -29 -114.5 -49.5t-131.5 -32.5h-2q-12 -2 -25 -2h-28q-98 0 -183 50t-145 136q2 -70 4.5 -117t10.5 -51h-96l-3 82q-47 -47 -110.5 -74.5t-136.5 -27.5 q-68 0 -128.5 24.5t-104.5 66.5t-70.5 98.5t-26.5 119.5zM170 289q0 -47 18.5 -87t51 -70t76.5 -47t96 -17q51 0 96 17t79 47t53 70t19 87v63q-14 55 -18 119v45h-229q-51 0 -95.5 -18.5t-77 -49t-51 -71.5t-18.5 -88zM743 555h627q-6 82 -33.5 154.5t-70.5 126t-98.5 84 t-118.5 30.5q-61 0 -116.5 -29.5t-97.5 -83t-67 -126t-25 -156.5z" />
<glyph unicode="&#xe7;" horiz-adv-x="1009" d="M78 510q0 109 38 204t104.5 166.5t156.5 113.5t192 42q104 0 195.5 -43t157.5 -119l-60 -59q-57 61 -132 98t-161 37q-84 0 -157.5 -34.5t-129 -94t-87 -139.5t-31.5 -172t31.5 -173t87 -140.5t129 -94t157.5 -34.5t158 33.5t127 93.5l61 -60q-61 -66 -143 -106.5 t-180 -46.5l-17 -56q8 0 25.5 -8t36 -23.5t32 -37t13.5 -45.5q0 -29 -22.5 -60t-79.5 -65l-66 53q14 2 30.5 7t32 13.5t25.5 19.5t10 27q0 23 -11 37.5t-27.5 21.5t-35 10t-30.5 3q-4 0 -9 -1t-10 -1l5 111q-88 14 -164 60t-132.5 115.5t-88 158t-31.5 188.5z" />
<glyph unicode="&#xe8;" horiz-adv-x="933" d="M59 471v39q0 109 33 205t88.5 167.5t129 113.5t157.5 42q86 0 159.5 -35.5t128 -101t85 -157t30.5 -201.5v-49h-723q4 -86 34 -163t76 -135.5t107.5 -93t129.5 -34.5q43 0 87 7t84 19t74.5 28.5t57.5 33.5l34 -80q-49 -37 -127.5 -59.5t-158.5 -32.5h-2q-12 -2 -26 -2 h-28q-86 0 -160.5 37.5t-133 104t-94.5 156t-42 191.5zM147 578h641q-6 82 -33.5 150.5t-70.5 117.5t-98.5 76.5t-118.5 27.5q-61 0 -116.5 -27.5t-98.5 -76.5t-71 -117.5t-34 -150.5zM292 1311h136l135 -178h-47z" />
<glyph unicode="&#xe9;" horiz-adv-x="933" d="M59 471v39q0 109 33 205t88.5 167.5t129 113.5t157.5 42q86 0 159.5 -35.5t128 -101t85 -157t30.5 -201.5v-49h-723q4 -86 34 -163t76 -135.5t107.5 -93t129.5 -34.5q43 0 87 7t84 19t74.5 28.5t57.5 33.5l34 -80q-49 -37 -127.5 -59.5t-158.5 -32.5h-2q-12 -2 -26 -2 h-28q-86 0 -160.5 37.5t-133 104t-94.5 156t-42 191.5zM147 578h641q-6 82 -33.5 150.5t-70.5 117.5t-98.5 76.5t-118.5 27.5q-61 0 -116.5 -27.5t-98.5 -76.5t-71 -117.5t-34 -150.5zM455 1133l135 178h135l-223 -178h-47z" />
<glyph unicode="&#xea;" horiz-adv-x="933" d="M59 471v39q0 109 33 205t88.5 167.5t129 113.5t157.5 42q86 0 159.5 -35.5t128 -101t85 -157t30.5 -201.5v-49h-723q4 -86 34 -163t76 -135.5t107.5 -93t129.5 -34.5q43 0 87 7t84 19t74.5 28.5t57.5 33.5l34 -80q-49 -37 -127.5 -59.5t-158.5 -32.5h-2q-12 -2 -26 -2 h-28q-86 0 -160.5 37.5t-133 104t-94.5 156t-42 191.5zM147 578h641q-6 82 -33.5 150.5t-70.5 117.5t-98.5 76.5t-118.5 27.5q-61 0 -116.5 -27.5t-98.5 -76.5t-71 -117.5t-34 -150.5zM243 1163l220 217l221 -219l-53 -51l-168 170l-170 -170z" />
<glyph unicode="&#xeb;" horiz-adv-x="933" d="M59 471v39q0 109 33 205t88.5 167.5t129 113.5t157.5 42q86 0 159.5 -35.5t128 -101t85 -157t30.5 -201.5v-49h-723q4 -86 34 -163t76 -135.5t107.5 -93t129.5 -34.5q43 0 87 7t84 19t74.5 28.5t57.5 33.5l34 -80q-49 -37 -127.5 -59.5t-158.5 -32.5h-2q-12 -2 -26 -2 h-28q-86 0 -160.5 37.5t-133 104t-94.5 156t-42 191.5zM147 578h641q-6 82 -33.5 150.5t-70.5 117.5t-98.5 76.5t-118.5 27.5q-61 0 -116.5 -27.5t-98.5 -76.5t-71 -117.5t-34 -150.5zM268 1331q0 23 17.5 39t41.5 16q23 0 41.5 -16t18.5 -39t-18.5 -39t-41.5 -16 q-25 0 -42 16t-17 39zM542 1331q0 23 17.5 39t42.5 16q23 0 41 -16t18 -39t-18.5 -39t-40.5 -16q-25 0 -42.5 16t-17.5 39z" />
<glyph unicode="&#xec;" horiz-adv-x="432" d="M31 1311h135l135 -178h-47zM195 1024h84l2 -1024h-84z" />
<glyph unicode="&#xed;" horiz-adv-x="432" d="M104 1133l136 178h135l-223 -178h-48zM133 1024h84l2 -1024h-84z" />
<glyph unicode="&#xee;" horiz-adv-x="362" d="M-41 1163l219 217l221 -219l-53 -51l-168 170l-170 -170zM133 1024h84l2 -1024h-84z" />
<glyph unicode="&#xef;" horiz-adv-x="362" d="M23 1331q0 23 17 39t42 16q23 0 41 -16t18 -39t-18.5 -39t-40.5 -16q-25 0 -42 16t-17 39zM133 1024h84l2 -1024h-84zM215 1331q0 23 17.5 39t41.5 16q23 0 41.5 -16t18.5 -39t-18.5 -39t-41.5 -16q-25 0 -42 16t-17 39z" />
<glyph unicode="&#xf0;" horiz-adv-x="1001" d="M78 985v14q0 88 33.5 165t91 135.5t135.5 92t166 33.5t166 -32.5t135 -88t91 -130t38 -160.5v-6q6 -84 6 -172v-172q0 -82 -5 -161t-20 -153q-16 -80 -57 -147.5t-100.5 -115.5t-134 -74.5t-156.5 -26.5q-102 0 -193.5 47t-150.5 121l84 67q49 -70 121.5 -108.5 t152.5 -38.5q68 0 127.5 22.5t106.5 62.5t78.5 95t46.5 119q10 76 16 156.5t6 166.5v70q-57 -86 -151.5 -136t-210.5 -50q-84 0 -160 31.5t-133 86t-92 128t-37 159.5zM160 989q4 -68 31.5 -127t73.5 -103t106.5 -69.5t128.5 -25.5q74 0 137 26.5t110.5 72.5t74 108.5 t26.5 134.5q0 68 -27.5 128t-76 105t-110 71.5t-128.5 26.5q-74 0 -136.5 -28.5t-109.5 -75.5t-73.5 -110.5t-26.5 -133.5z" />
<glyph unicode="&#xf1;" horiz-adv-x="886" d="M80 1024h86v-145q49 78 122.5 119.5t162.5 41.5q72 0 134 -29.5t108 -79.5t74 -119t30 -146l6 -666h-86l-2 666q-2 61 -21.5 113t-53.5 91t-81 61.5t-102 22.5q-51 0 -100.5 -19.5t-89.5 -54t-66.5 -81.5t-34.5 -103l2 -696h-86zM229 1200l19 88q33 -35 81 -44t89 13h2 q55 31 122.5 28t123.5 -36l-19 -90l-2 2q-31 37 -81 46.5t-91 -13.5h-2q-53 -31 -120 -28t-122 34z" />
<glyph unicode="&#xf2;" horiz-adv-x="1079" d="M45 506q0 111 38 207t103.5 167.5t153.5 113.5t186 42t184.5 -42t151 -113.5t102 -168t37.5 -206.5q0 -109 -37.5 -204t-102 -167t-150.5 -113.5t-185 -41.5q-98 0 -186 41.5t-153.5 113.5t-103.5 167t-38 204zM131 506q0 -90 31 -171t85 -140.5t125.5 -94t153.5 -34.5 q80 0 151 34.5t123 94t82.5 140.5t30.5 171q0 92 -30.5 173t-82.5 141.5t-123 95t-151 34.5q-82 0 -153.5 -34.5t-125.5 -95t-85 -141.5t-31 -173zM319 1311h136l135 -178h-47z" />
<glyph unicode="&#xf3;" horiz-adv-x="1079" d="M45 506q0 111 38 207t103.5 167.5t153.5 113.5t186 42t184.5 -42t151 -113.5t102 -168t37.5 -206.5q0 -109 -37.5 -204t-102 -167t-150.5 -113.5t-185 -41.5q-98 0 -186 41.5t-153.5 113.5t-103.5 167t-38 204zM131 506q0 -90 31 -171t85 -140.5t125.5 -94t153.5 -34.5 q80 0 151 34.5t123 94t82.5 140.5t30.5 171q0 92 -30.5 173t-82.5 141.5t-123 95t-151 34.5q-82 0 -153.5 -34.5t-125.5 -95t-85 -141.5t-31 -173zM510 1133l135 178h135l-223 -178h-47z" />
<glyph unicode="&#xf4;" horiz-adv-x="1050" d="M45 506q0 111 38 207t103.5 167.5t153.5 113.5t186 42t184.5 -42t151 -113.5t102 -168t37.5 -206.5q0 -109 -37.5 -204t-102 -167t-150.5 -113.5t-185 -41.5q-98 0 -186 41.5t-153.5 113.5t-103.5 167t-38 204zM131 506q0 -90 31 -171t85 -140.5t125.5 -94t153.5 -34.5 q80 0 151 34.5t123 94t82.5 140.5t30.5 171q0 92 -30.5 173t-82.5 141.5t-123 95t-151 34.5q-82 0 -153.5 -34.5t-125.5 -95t-85 -141.5t-31 -173zM303 1163l220 217l221 -219l-53 -51l-168 170l-170 -170z" />
<glyph unicode="&#xf5;" horiz-adv-x="1050" d="M45 506q0 111 38 207t103.5 167.5t153.5 113.5t186 42t184.5 -42t151 -113.5t102 -168t37.5 -206.5q0 -109 -37.5 -204t-102 -167t-150.5 -113.5t-185 -41.5q-98 0 -186 41.5t-153.5 113.5t-103.5 167t-38 204zM131 506q0 -90 31 -171t85 -140.5t125.5 -94t153.5 -34.5 q80 0 151 34.5t123 94t82.5 140.5t30.5 171q0 92 -30.5 173t-82.5 141.5t-123 95t-151 34.5q-82 0 -153.5 -34.5t-125.5 -95t-85 -141.5t-31 -173zM330 1221l19 104q33 -41 81 -52t88 15h3q55 37 122.5 34t122.5 -42l-18 -106l-2 2q-31 43 -81 54t-91 -16h-2 q-53 -37 -120 -33.5t-122 40.5z" />
<glyph unicode="&#xf6;" horiz-adv-x="1079" d="M45 506q0 111 38 207t103.5 167.5t153.5 113.5t186 42t184.5 -42t151 -113.5t102 -168t37.5 -206.5q0 -109 -37.5 -204t-102 -167t-150.5 -113.5t-185 -41.5q-98 0 -186 41.5t-153.5 113.5t-103.5 167t-38 204zM131 506q0 -90 31 -171t85 -140.5t125.5 -94t153.5 -34.5 q80 0 151 34.5t123 94t82.5 140.5t30.5 171q0 92 -30.5 173t-82.5 141.5t-123 95t-151 34.5q-82 0 -153.5 -34.5t-125.5 -95t-85 -141.5t-31 -173zM352 1331q0 23 17.5 39t41.5 16q23 0 41.5 -16t18.5 -39t-18.5 -39t-41.5 -16q-25 0 -42 16t-17 39zM626 1331q0 23 17.5 39 t42.5 16q23 0 41 -16t18 -39t-18.5 -39t-40.5 -16q-25 0 -42.5 16t-17.5 39z" />
<glyph unicode="&#xf7;" horiz-adv-x="870" d="M72 559v86h706v-86h-706zM362 287v131h132v-131h-132zM362 793v131h132v-131h-132z" />
<glyph unicode="&#xf8;" horiz-adv-x="1050" d="M45 506q0 111 38 207t103.5 167.5t153.5 113.5t186 42q100 0 187.5 -44t152.5 -118l-65 -57q-53 61 -124 97t-151 36q-82 0 -153.5 -34.5t-125.5 -95t-85 -141.5t-31 -173q0 -59 13.5 -113.5t35.5 -101.5l-65 -58q-70 123 -70 273zM160 166l63 55q53 -72 132 -113.5 t171 -41.5q80 0 151 34.5t123 94t82.5 140.5t30.5 171q0 70 -17 132t-50 116l67 57q41 -66 64.5 -142.5t23.5 -162.5q0 -109 -37.5 -204t-102 -167t-150.5 -113.5t-185 -41.5q-111 0 -205.5 50t-160.5 136z" />
<glyph unicode="&#xf9;" horiz-adv-x="921" d="M96 1024h84l4 -666q2 -59 22.5 -111t55.5 -92t82 -62.5t102 -22.5q51 0 99.5 20.5t86.5 55t63.5 81.5t31.5 101v696h86v-926v-98h-84l-2 143q-47 -72 -121 -116.5t-162 -44.5q-72 0 -133 29.5t-107 80.5t-73 120t-29 146zM243 1311h136l135 -178h-47z" />
<glyph unicode="&#xfa;" horiz-adv-x="921" d="M96 1024h84l4 -666q2 -59 22.5 -111t55.5 -92t82 -62.5t102 -22.5q51 0 99.5 20.5t86.5 55t63.5 81.5t31.5 101v696h86v-926v-98h-84l-2 143q-47 -72 -121 -116.5t-162 -44.5q-72 0 -133 29.5t-107 80.5t-73 120t-29 146zM401 1133l135 178h135l-223 -178h-47z" />
<glyph unicode="&#xfb;" horiz-adv-x="921" d="M96 1024h84l4 -666q2 -59 22.5 -111t55.5 -92t82 -62.5t102 -22.5q51 0 99.5 20.5t86.5 55t63.5 81.5t31.5 101v696h86v-926v-98h-84l-2 143q-47 -72 -121 -116.5t-162 -44.5q-72 0 -133 29.5t-107 80.5t-73 120t-29 146zM237 1163l220 217l221 -219l-53 -51l-168 170 l-170 -170z" />
<glyph unicode="&#xfc;" horiz-adv-x="921" d="M96 1024h84l4 -666q2 -59 22.5 -111t55.5 -92t82 -62.5t102 -22.5q51 0 99.5 20.5t86.5 55t63.5 81.5t31.5 101v696h86v-926v-98h-84l-2 143q-47 -72 -121 -116.5t-162 -44.5q-72 0 -133 29.5t-107 80.5t-73 120t-29 146zM262 1331q0 23 17.5 39t41.5 16q23 0 41.5 -16 t18.5 -39t-18.5 -39t-41.5 -16q-25 0 -42 16t-17 39zM536 1331q0 23 17.5 39t42.5 16q23 0 41 -16t18 -39t-18.5 -39t-40.5 -16q-25 0 -42.5 16t-17.5 39z" />
<glyph unicode="&#xfd;" horiz-adv-x="1095" d="M108 -399l11 88q4 -4 8 -6t8 -7h4q10 0 22.5 -1t24.5 -1q72 0 140.5 48.5t105.5 140.5l84 209l-397 964h92l346 -864l340 864h92l-393 -964l-90 -240l-4 -18q-49 -109 -136.5 -166.5t-183.5 -57.5q-33 1 -74 11zM530 1133l135 178h135l-223 -178h-47z" />
<glyph unicode="&#xfe;" horiz-adv-x="1058" d="M127 -401v1818h86v-456q55 35 133 57t170 22q102 -2 192.5 -44t157 -112.5t105.5 -165.5t39 -204q0 -111 -39 -208t-105.5 -168.5t-157 -113.5t-192.5 -42q-94 0 -168 24.5t-137 54.5v-462h-84zM207 842l6 -647q-2 -25 20.5 -47.5t64.5 -40t98.5 -27.5t119.5 -12 q82 2 155.5 37.5t129 95t88.5 140.5t33 171q0 88 -33 168t-88.5 140.5t-129 96t-155.5 35.5q-59 0 -112.5 -8t-95.5 -23.5t-68.5 -35.5t-32.5 -43z" />
<glyph unicode="&#xff;" horiz-adv-x="1095" d="M108 -399l11 88q4 -4 8 -6t8 -7h4q10 0 22.5 -1t24.5 -1q72 0 140.5 48.5t105.5 140.5l84 209l-397 964h92l346 -864l340 864h92l-393 -964l-90 -240l-4 -18q-49 -109 -136.5 -166.5t-183.5 -57.5q-33 1 -74 11zM371 1331q0 23 17.5 39t41.5 16q23 0 41.5 -16t18.5 -39 t-18.5 -39t-41.5 -16q-25 0 -42 16t-17 39zM645 1331q0 23 17.5 39t42.5 16q23 0 41 -16t18 -39t-18.5 -39t-40.5 -16q-25 0 -42.5 16t-17.5 39z" />
<glyph unicode="&#x152;" horiz-adv-x="2162" d="M59 707q0 150 50.5 279.5t138.5 227t204.5 153.5t249.5 56q182 0 328 -95t232 -259v346h817v-82h-731v-536h624v-86h-624v-625h731l2 -86h-817l-2 340q-47 -92 -113 -160q-88 -96 -201.5 -147t-245.5 -51q-129 0 -245.5 55t-204.5 152.5t-140.5 230.5t-52.5 287zM147 707 q0 -133 43 -249t118 -202t176.5 -136t217.5 -50q113 0 211.5 45t172 122.5t119.5 183t57 228.5v113q-10 123 -56.5 225.5t-120.5 179.5q-72 80 -171 124t-212 44q-115 0 -216 -49t-177 -134t-119 -199.5t-43 -245.5z" />
<glyph unicode="&#x153;" horiz-adv-x="1802" d="M45 506q0 111 38 207t103.5 167.5t153.5 113.5t186 42q74 0 140.5 -23.5t123 -65.5t100.5 -101.5t73 -128.5q47 141 147 231t227 90q86 0 160 -40t128 -109.5t85 -163.5t31 -205v-49h-723q4 -86 32.5 -159.5t74.5 -128t106.5 -86t128.5 -31.5q33 0 73 9t79.5 21.5 t76.5 27.5t62 28l35 -76q-53 -29 -127 -54.5t-144 -37.5h-2q-12 -2 -25 -2h-28q-68 0 -128.5 23.5t-111.5 65.5t-91 100t-64 130q-29 -72 -73 -130t-100.5 -101t-124 -66.5t-141.5 -23.5q-98 0 -186 41.5t-153.5 113.5t-103.5 167t-38 204zM131 506q0 -90 31 -171t85 -140.5 t125.5 -94t153.5 -34.5q80 0 151 34.5t123 94t82.5 140.5t30.5 171q0 92 -30.5 173t-82.5 141.5t-123 95t-151 34.5q-82 0 -153.5 -34.5t-125.5 -95t-85 -141.5t-31 -173zM1018 555h641q-6 82 -34 154.5t-71 126t-98 84t-119 30.5q-61 0 -116.5 -30.5t-98.5 -84t-70.5 -126 t-33.5 -154.5z" />
<glyph unicode="&#x178;" horiz-adv-x="1394" d="M72 1415h116l504 -692l512 692h115l-580 -774l2 -641h-88l-2 641zM496 1542q0 23 17.5 39t41.5 16q23 0 41.5 -16t18.5 -39t-18.5 -39t-41.5 -16q-25 0 -42 16t-17 39zM770 1542q0 23 17.5 39t42.5 16q23 0 41 -16t18 -39t-18.5 -39t-40.5 -16q-25 0 -42.5 16t-17.5 39z " />
<glyph unicode="&#x2c6;" horiz-adv-x="548" d="M63 1163l220 217l221 -219l-53 -51l-168 170l-170 -170z" />
<glyph unicode="&#x2da;" horiz-adv-x="1705" />
<glyph unicode="&#x2dc;" horiz-adv-x="684" d="M131 1221l19 104q33 -41 81 -52t88 15h3q55 37 122.5 34t122.5 -42l-18 -106l-2 2q-31 43 -81 54t-91 -16h-2q-53 -37 -120 -33.5t-122 40.5z" />
<glyph unicode="&#x2000;" horiz-adv-x="884" />
<glyph unicode="&#x2001;" horiz-adv-x="1771" />
<glyph unicode="&#x2002;" horiz-adv-x="884" />
<glyph unicode="&#x2003;" horiz-adv-x="1771" />
<glyph unicode="&#x2004;" horiz-adv-x="589" />
<glyph unicode="&#x2005;" horiz-adv-x="442" />
<glyph unicode="&#x2006;" horiz-adv-x="294" />
<glyph unicode="&#x2007;" horiz-adv-x="294" />
<glyph unicode="&#x2008;" horiz-adv-x="221" />
<glyph unicode="&#x2009;" horiz-adv-x="354" />
<glyph unicode="&#x200a;" horiz-adv-x="98" />
<glyph unicode="&#x2010;" horiz-adv-x="862" d="M84 559v86h707v-86h-707z" />
<glyph unicode="&#x2011;" horiz-adv-x="862" d="M84 559v86h707v-86h-707z" />
<glyph unicode="&#x2012;" horiz-adv-x="862" d="M84 559v86h707v-86h-707z" />
<glyph unicode="&#x2013;" horiz-adv-x="851" d="M84 559v86h707v-86h-707z" />
<glyph unicode="&#x2014;" horiz-adv-x="1089" d="M84 559v86h940v-86h-940z" />
<glyph unicode="&#x2018;" horiz-adv-x="307" d="M70 1214l92 199l16 -8l-18 -152l53 -116l-88 -41z" />
<glyph unicode="&#x2019;" horiz-adv-x="325" d="M70 1139l65 137l-14 129l98 10l14 -129l-151 -160z" />
<glyph unicode="&#x201a;" horiz-adv-x="352" d="M78 -129l82 129l-2 131h98l2 -131l-170 -141z" />
<glyph unicode="&#x201c;" horiz-adv-x="446" d="M70 1286l14 129l98 -10l-14 -129l65 -137l-12 -13zM219 1286l14 129l99 -10l-15 -129l66 -137l-12 -13z" />
<glyph unicode="&#x201d;" horiz-adv-x="485" d="M70 1139l65 137l-14 129l98 10l14 -129l-151 -160zM219 1139l66 137l-15 129l99 10l14 -129l-152 -160z" />
<glyph unicode="&#x201e;" horiz-adv-x="473" d="M57 -125l78 131l-4 129h100v-129l-163 -143zM209 -127l78 131v129h96v-131l-166 -143z" />
<glyph unicode="&#x2022;" horiz-adv-x="428" d="M90 786q0 51 38 90t89 39q49 0 89 -38.5t40 -90.5q0 -23 -11 -45t-28.5 -39.5t-41 -27.5t-48.5 -10q-51 0 -89 37.5t-38 84.5z" />
<glyph unicode="&#x2026;" horiz-adv-x="890" d="M86 131h131l2 -131h-131zM383 131h131l2 -131h-131zM680 131h131l2 -131h-131z" />
<glyph unicode="&#x202f;" horiz-adv-x="354" />
<glyph unicode="&#x2039;" horiz-adv-x="720" d="M96 508l498 504l63 -60l-440 -444l440 -434l-61 -64z" />
<glyph unicode="&#x203a;" horiz-adv-x="702" d="M96 74l441 434l-441 444l64 60l497 -504l-499 -498z" />
<glyph unicode="&#x205f;" horiz-adv-x="442" />
<glyph unicode="&#x20ac;" horiz-adv-x="1525" d="M82 535v88h205q0 18 -3 38.5t-3 38.5q0 33 3 62t7 55h-209v86h227q31 113 94.5 208t148.5 165t188.5 108.5t215.5 38.5q150 0 277 -62.5t223 -164.5l-63 -63q-86 94 -193.5 148t-243.5 54q-96 0 -185 -31.5t-161.5 -89t-128 -137.5t-84.5 -174h703v-86h-721 q-10 -57 -10 -117q0 -18 2 -38.5t2 -38.5h727v-88h-707q25 -100 78 -185.5t127 -148t166 -97t192 -34.5q135 0 243 55t194 154l63 -70q-96 -102 -223 -164.5t-277 -62.5q-121 0 -228 42t-193 115.5t-146.5 175t-87.5 220.5h-219z" />
<glyph unicode="&#x2122;" horiz-adv-x="854" d="M61 1339v60h308v-60h-119v-356h-66v356h-123zM408 983v416h53l114 -195l57 101l56 94h51v-416h-61v283l-47 -76q-25 -39 -41 -72h-33l-86 148v-283h-63z" />
<glyph unicode="&#xe000;" horiz-adv-x="1025" d="M0 1025h1025v-1025h-1025v1025z" />
<glyph unicode="&#xfb01;" horiz-adv-x="995" d="M76 913v88h151q2 0 2 15q0 4 -1 11t-1 13v15v24q4 70 29 132.5t64.5 109.5t93 74.5t112.5 27.5h51q24 0 48 -4l-25 -84q-14 4 -35 4h-39q-45 -2 -84 -24.5t-68.5 -61.5t-46 -90t-16.5 -108v-54h269v-88h-269l2 -913h-80l-2 913h-155zM799 1331q0 23 17.5 39t41.5 16 q23 0 41.5 -16t18.5 -39t-18.5 -39t-41.5 -16q-25 0 -42 16t-17 39zM815 1024h84l2 -1024h-84z" />
<glyph unicode="&#xfb02;" horiz-adv-x="1003" d="M76 913v88h151q2 0 2 15q0 4 -1 11t-1 13v15v24q4 72 29 134.5t64.5 108.5t93 72.5t112.5 28.5h11h88l2 -1423h-88l-2 913h-226l2 -913h-80l-2 913h-155zM311 1001h226v338h-11q-45 -2 -84 -24.5t-68.5 -61.5t-46 -90t-16.5 -108v-54z" />
<glyph unicode="&#xfb03;" horiz-adv-x="1757" d="M1501 1331q0 23 17.5 39t41.5 16q23 0 41 -16t18 -39t-18 -39t-41 -16q-25 0 -42 16t-17 39zM1517 1024h84l2 -1024h-84zM748 913v88h151q2 0 2 15q0 4 -1 11t-1 13v15v24q4 70 29 132.5t64.5 109.5t93 74.5t112.5 27.5h51q24 0 48 -4l-25 -84q-14 4 -35 4h-39 q-45 -2 -84 -24.5t-68.5 -61.5t-46 -90t-16.5 -108v-54h271v-88h-271l2 -913h-80q-2 172 -2 340v573h-155zM76 913v88h151q2 0 2 15q0 4 -1 11t-1 13v15v24q4 70 29 132.5t64.5 109.5t93 74.5t112.5 27.5h51q24 0 48 -4l-25 -84q-14 4 -35 4h-39q-45 -2 -84 -24.5 t-68.5 -61.5t-46 -90t-16.5 -108v-54h271v-88h-271l2 -913h-80q-2 172 -2 340v573h-155z" />
<glyph unicode="&#xfb04;" horiz-adv-x="1675" d="M1476 1536h86l2 -1536h-86zM748 913v88h151q2 0 2 15q0 4 -1 11t-1 13v15v24q4 70 29 132.5t64.5 109.5t93 74.5t112.5 27.5h51q24 0 48 -4l-25 -84q-14 4 -35 4h-39q-45 -2 -84 -24.5t-68.5 -61.5t-46 -90t-16.5 -108v-54h271v-88h-271l2 -913h-80q-2 172 -2 340v573 h-155zM76 913v88h151q2 0 2 15q0 4 -1 11t-1 13v15v24q4 70 29 132.5t64.5 109.5t93 74.5t112.5 27.5h51q24 0 48 -4l-25 -84q-14 4 -35 4h-39q-45 -2 -84 -24.5t-68.5 -61.5t-46 -90t-16.5 -108v-54h271v-88h-271l2 -913h-80q-2 172 -2 340v573h-155z" />
</font>
</defs>
</svg>
